No Saints For Sinners 2012 DVDRip Legend-Rg

seeders: 587
leechers: 41
Added on May 30, 2012 by Hackullus42.43K in Movies
Torrent verified. Downloaded 31,935 times.

Summary:
Mickey O'Hara is a committed IRA member but his days of freedom fighting are long gone, leaving him peddling drugs and disenchanted with "the cause." When a deal goes wrong, things take a dramatic turn for Mickey, who is forced to kill his partner. Marked for death, Mickey flees to LA, determined to make a fresh start and leave his violent past behind. When a close friend runs afoul of some powerful drug dealers, Mickey temporarily resorts to his old ways to help him get out of trouble. However, instead of making things better, Mickey unwittingly sets off a chain of events that reawakens the ghosts of his past and threatens to destroy everything he holds dear.
Written by Stormarekilla30.28K
report summary
Available in versions: HDRiPDVDRip
No Saints For Sinners 2012 DVDRip Legend-Rg (Size: 1.44 GB)
  No Saints For Sinners 2012 DVDRip Legend-Rg.avi 1.44 GB
  Torrent downloaded from AhaShare.com.txt 59 bytes
  Torrent downloaded from Demonoid.me.txt 46 bytes
  Torrent downloaded from extratorrent.com.txt 40 bytes
  Torrent downloaded from Rarbg.com.txt 33 bytes
  torrent downloaded from H33T.com.txt 32 bytes

Description

image

No Saints for Sinners

http://www.imdb.com/title/tt1510925/

Mickey O'Hara is a committed IRA member but his days of freedom fighting are long gone, leaving him peddling drugs and disenchanted with "the cause." When a deal goes wrong, things take a dramatic turn for Mickey, who is forced to kill his partner. Marked for death, Mickey flees to LA, determined to make a fresh start and leave his violent past behind. When a close friend runs afoul of some powerful drug dealers, Mickey temporarily resorts to his old ways to help him get out of trouble. However, instead of making things better, Mickey unwittingly sets off a chain of events that reawakens the ghosts of his past and threatens to destroy everything he holds dear.

General

Format : AVI
Format/Info : Audio Video Interleave
Format profile : OpenDML
File size : 1.44 GiB
Duration : 1h 20mn
Overall bit rate : 2 555 Kbps
Writing application : Lavf51.12.1

Video
ID : 0
Format : AVC
Format/Info : Advanced Video Codec
Format profile : Baseline@L3.1
Format settings, CABAC : No
Format settings, ReFrames : 1 frame
Format settings, GOP : M=1, N=12
Codec ID : H264
Duration : 1h 20mn
Bit rate : 2 413 Kbps
Width : 1 024 pixels
Height : 576 pixels
Display aspect ratio : 16:9
Frame rate mode : Variable
Frame rate : 23.976 fps
Color space : YUV
Chroma subsampling : 4:2:0
Bit depth : 8 bits
Scan type : Progressive
Bits/(Pixel*Frame) : 0.171
Stream size : 1.36 GiB (94%)

Audio
ID : 1
Format : MPEG Audio
Format version : Version 1
Format profile : Layer 3
Mode : Joint stereo
Mode extension : MS Stereo
Codec ID : 55
Codec ID/Hint : MP3
Duration : 1h 20mn
Bit rate mode : Constant
Bit rate : 128 Kbps
Channel(s) : 2 channels
Sampling rate : 44.1 KHz
Compression mode : Lossy
Stream size : 73.9 MiB (5%)
Alignment : Aligned on interleaves
Interleave, duration : 26 ms (0.63 video frame)
Interleave, preload duration : 26 ms
Writing library : LAME3.97

image
image
image
image
image

Related Torrents

torrent name size files age seed leech

Sharing Widget


Download torrent
1.44 GB
seeders:587
leechers:41
No Saints For Sinners 2012 DVDRip Legend-Rg

Trackers

tracker name Status checked seeders leechers downloads
udp://9.rarbg.com:2710/announce
outdated 10 May 2013 - - -
http://inferno.demonoid.me:3389/announce
outdated 10 May 2013 - - -
udp://tracker.istole.it:80/announce
outdated 10 May 2013 - - -
udp://tracker.publicbt.com:80/announce
outdated 10 May 2013 - - -
http://tracker.istole.it/announce
outdated 10 May 2013 - - -
udp://tracker.openbittorrent.com:80/announce
outdated 10 May 2013 - - -
udp://11.rarbg.com:80/announce
private 10 May 2013 - - -
udp://fr33domtracker.h33t.com:3310/announce
deleted 10 May 2013 - - -
http://tracker.publicbt.com/announce
deleted 10 May 2013 - - -
udp://10.rarbg.com:80/announce
private 10 May 2013 49 1 10
ĀµTorrent compatible trackers list

Locations

name
KickassTorrents
Torrent hash: 2405ACA1E9C35BC10EEE050FF63DE4A4D6FCF462

Uploader Comments

9
Hackullus42.43K • 30 May 2012, 07:15
not a rar file m8

All Comments

audio
8/10
video
8/10
please, leave only comments related to that torrent
or sign-in
0
Ashu_0077654 • 13 December 2013, 20:30
torrent downloaded
Show comment
audio: 9video: 8
0
alllifeinfate4609 • 12 April 2013, 10:05
torrent downloaded
Show comment
audio: 8video: 8
Thanks for the torrent! loveliness Nice upload!
0
BuzWeaver947 • 14 January 2013, 05:15
torrent downloaded
Show comment
audio: 9video: 9
Good video and audio quality.
0
jfr1582 • 02 January 2013, 20:54
torrent downloaded
Show comment
audio: 9video: 9
Fast D/L Great Job Updoading Wonerful Movie
0
Duk1nfamous2522 • 01 January 2013, 02:47
torrent downloaded
Show comment
audio: 8video: 8
Thanks mate.
0
axe-193.31K • 21 October 2012, 13:43
torrent downloaded
Show comment
boring movie...sad
0
Hariskhan112 • 20 October 2012, 17:39 Show comment
nice Copyshockedtitter
0
Unreality2k4680 • 11 October 2012, 01:54
torrent downloaded
Show comment
audio: 9video: 9
great rip thanks
-1
anonymous • 26 September 2012, 10:40 Show comment
My name is Jordan Roberts. I'm the writer/director and the man who paid for 3,2,1...Frankie Go Boom. There was no studio involved. It was 100% financed by me, which will be easily validated by looking at any of the press associated with the film. I earned the money over 5 years, working in Hollywood. What you have done -- by uploading my film --- has not only cost me and my family a great deal of money. It's also harmed the legitimate release of my film. Just thought you should know. You're not fucking the Man. You're fucking me. An individual. Who made something that you stole and shared. It's not complicated, bro. It's very very simple. You. Are. A. Dick. Period
0
MrHuzz608 • 10 September 2012, 15:17
torrent downloaded
Show comment
audio: 8video: 8
Show More All

User Opinions

MoonChild11.17K, TeGiiGii4478, Naskal4134, Ha_Nif3022, speedtriplll1914, VonDutch691909, clay011176, nikozzz943, nic1572776, dzet233 ... And 503 more
electsub2489, babatton1269, alfa_X877, timeke404, anh_duc_ta350, secretdanger349, alexkid2011292, raja_mohsin_242, Dominico86161, yve199046 ... And 36 more
Report a bug