Oz the Great and Powerful (2013) DVDRip XviD-MAXSPEED

seeders: 114
leechers: 13
Added on May 23, 2013 by piratepedia700.55K in Movies
Torrent verified. Downloaded 17,069 times.

Summary:
A small-time magician is swept away to an enchanted land and is forced into a power struggle between three witches.
Written by 5fingerdis47.88K
report summary
Oz the Great and Powerful (2013) DVDRip XviD-MAXSPEED (Size: 1.61 GB)
  Oz the Great and Powerful (2013) DVDRip XviD-MAXSPEED www.torentz.3xforum.ro.avi 1.59 GB
  sample.avi 17.54 MB
  screencaps.jpeg 610.73 KB
  Oz the Great and Powerful (2013) DVDRip XviD-MAXSPEED.nfo 3.08 KB
  Torrent downloaded from Kat.ph.txt 46 bytes
  Torrent downloaded from extratorrent.com.txt 40 bytes
  Torrent downloaded from Rarbg.com.txt 33 bytes
  torrent downloaded from H33T.com.txt 32 bytes

Description

http://www.torentz.3xforum.ro/post/3120/1/Oz_the_Great_and_Powerful_2013_DVDRip_XviD-MAXSPEED/

image
.
Screens:
.
image
image
image
.
ScreenCaps:
.
image
.
Oz the Great and Powerful (2013) DVDRip XviD-MAXSPEED
Format : AVI
Format/Info : Audio Video Interleave
Format profile : OpenDML
Format settings : rec
File size : 1.59 GiB
Duration : 2h 10mn
Overall bit rate : 1 748 Kbps
.
Video
ID : 0
Format : MPEG-4 Visual
Format profile : Advanced Simple@L5
Format settings, BVOP : 2
Format settings, QPel : No
Format settings, GMC : No warppoints
Format settings, Matrix : Default (MPEG)
Codec ID : XVID
Codec ID/Hint : XviD
Duration : 2h 10mn
Bit rate : 1 295 Kbps
Width : 720 pixels
Height : 304 pixels
Display aspect ratio : 2.35:1
Frame rate : 23.976 fps
Color space : YUV
Chroma subsampling : 4:2:0
Bit depth : 8 bits
Scan type : Progressive
Compression mode : Lossy
Bits/(Pixel*Frame) : 0.247
Stream size : 1.18 GiB (74%)
Writing library : XviD 1.2.1 (UTC 2008-12-04)
.
Audio
ID : 1
Format : AC-3
Format/Info : Audio Coding 3
Mode extension : CM (complete main)
Format settings, Endianness : Big
Codec ID : 2000
Duration : 2h 10mn
Bit rate mode : Constant
Bit rate : 448 Kbps
Channel(s) : 6 channels
Channel positions : Front: L C R, Side: L R, LFE
Sampling rate : 48.0 KHz
Bit depth : 16 bits
Compression mode : Lossy
Stream size : 418 MiB (26%)
Alignment : Aligned on interleaves
Interleave, duration : 64 ms (1.53 video frames)
Interleave, preload duration : 192 ms
.
Source: DVD (perfect a/v/sync quality,sample included)
This torrent is not seedbox supported,please seed it to the MAX
.
Note:If you have something to offer as early releases,seedboxes,
links,accounts,etc please contact us on torentz 3xforum ro
.
How To Get Your Maxspeed (uTorrent)
.
Torrent Client - Preferences - Bandwidth - Number of connections - Set aprox. 500 for each
Torrent Client - Preferences - BiTorrent - Protocol Encryption - Forced
Bandwidth Allocation - High (Set download/upload limit - Unlimited)
Stop Other Active Torrents - Start downloading and wait for connections.
Enjoy and Seed for at least 1:1 ratio. Don't forget to say thanks/leave reviews.
Before downloading you should check/google search sample "release name""sample".
Greets to all actual/future p2p/scene QUALITY groups and affiliate websites.
Don't trust IMDb robot or bad ratings,always watch some trailers first.
Ignore stupid comments/fake/mislabeled/no-DVDrips/CAM/TS/RAR uploads.
Please spread this release/torrent to your friends/forums/etc.
If you need translation subs visit some subtitles sites.
Report if you see online streaming or other spam links.
Recommended movie player VLC PLAYER.

Sharing Widget


Download torrent
1.61 GB
seeders:114
leechers:13
Oz the Great and Powerful (2013) DVDRip XviD-MAXSPEED

Trackers

tracker name Status checked seeders leechers downloads
udp://9.rarbg.com:2710/announce
outdated 10 Jun 2014 - - -
udp://tracker.publicbt.com:80/announce
outdated 10 Jun 2014 - - -
udp://tracker.istole.it:80/announce
outdated 10 Jun 2014 - - -
http://tracker.ex.ua/announce
outdated 10 Jun 2014 - - -
udp://tracker.openbittorrent.com:80/announce
outdated 10 Jun 2014 - - -
udp://tracker.coppersurfer.tk:6969/announce
outdated 10 Jun 2014 - - -
udp://open.demonii.com:1337/announce
outdated 10 Jun 2014 - - -
udp://tracker.ccc.de:80/announce
deleted 10 Jun 2014 - - -
http://fr33dom.h33t.com:3310/announce
deleted 10 Jun 2014 - - -
udp://tracker.beeimg.com:6969/announce
pending 10 Jun 2014 0 0 0
ĀµTorrent compatible trackers list

Locations

name
KickassTorrents
Torrent hash: 066FCD57E5965F33DAB18D121720B08F0323EF56

Top Comments

4
Cyber_Dude1472 • 23 May 2013, 18:09
torrent downloaded
audio: 9video: 9
Just watched it on my PC and the quality was fantastic. Cheers piratepedia700.55K biggrin

All Comments

audio
9/10
video
9/10
please, leave only comments related to that torrent
or sign-in
0
anonymous • 03 December 2013, 20:49 Show comment
audio: 9video: 9
thank you...great copy...
0
Vega_Zwolle59 • 15 October 2013, 19:00
torrent downloaded
Show comment
audio: 9video: 9
Great work. Thank you.
image

Last edited by Vega_Zwolle, 1 year and 1 month ago

0
LexLodon606 • 18 September 2013, 15:04
torrent downloaded
Show comment
audio: 9video: 9
Excellent Audio & Video
0
JeanBaptisteV1214 • 05 August 2013, 00:46
torrent downloaded
Show comment
audio: 9video: 9
0
Dnique8585338 • 01 August 2013, 21:09
torrent downloaded
Show comment
audio: 10video: 10
0
Zero_Beat1339 • 26 July 2013, 13:11
torrent downloaded
Show comment
audio: 10video: 10
nice
0
LaFemmeKita396 • 09 July 2013, 22:33
torrent downloaded
Show comment
audio: 10video: 10
Great! Thanks Uploader, only the best from Piratepedia. biggrin
Show More All

User Opinions

exodus221740, funkylowlow1535, toxictoadz1243, ricta1080, LexLodon606, mary_hop569, conway35554, Chrille_xTc477, blueallen01383, stefos72374 ... And 252 more
Scam2006951, aldemitz817, mike-miller630, bigd112480455, Kikljo363, woodman64322, uncle-tex269, nourikarita49, irishnortie27, banxy12314 ... And 1 more
Report a bug