Priest.2011.R5.LiNE.AC3.XViD-EP1C

seeders: 0
leechers: 0
Added on Jun 2, 2011 by hail_alpha66.47K in Movies
Torrent verified. Downloaded 0 times.

Summary:
The story revolves around a legendary Warrior Priest from the last Vampire War who now lives in obscurity among the other downtrodden human inhabitants in walled-in dystopian cities ruled by the Church. When his niece is abducted by a murderous pack of vampires, Priest breaks his sacred vows to venture out on a quest to find her before they turn her into one of them. He is joined on his crusade by his niece's boyfriend, a trigger-fingered young wasteland sheriff, and a former Warrior Priestess who possesses otherworldly fighting skills
Written by Aroooo54.47K
report summary
Priest.2011.R5.LiNE.AC3.XViD-EP1C (Size: 1.38 GB)
  Budget seedboxs.txt 44 bytes
  NW RG.nfo 12.96 KB
  Priest.2011.R5.LiNE.AC3.XViD-EP1C.avi 1.37 GB
  Priest.2011.R5.LiNE.AC3.XViD-EP1C.nfo 3.52 KB
  sample.avi 10.04 MB
  Torrent downloaded from Demonoid.me.txt 46 bytes
  dreamthe.net.txt 91 bytes
  DVD5.png 99.93 KB
  northernwarriors.net.txt 135 bytes
  Sceneunderground.org.txt 77 bytes

Description

image

::File:: Priest.2011.R5.LiNE.AC3.XViD-EP1C
::Video Source:: Pastyr.2011.DVD5
::Audio Source:: Own
::Language:::::: English
::IMDB:::::::::: http://www.imdb.com/title/tt0822847/

A priest disobeys church law to track down the vampires who kidnapped his niece.
::Specs:::::::::

Format : AVI
Format/Info : Audio Video Interleave
File size : 1.37 GiB
Duration : 1h 23mn
Overall bit rate : 2 338 Kbps
Writing application : VirtualDubMod 1.5.10.2 (build 2540/release)
Writing library : VirtualDubMod build 2540/release



Video
ID : 0
Format : MPEG-4 Visual
Format profile : Advanced Simple@L5
Format settings, BVOP : Yes
Format settings, QPel : No
Format settings, GMC : No warppoints
Format settings, Matrix : Custom
Codec ID : XVID
Codec ID/Hint : XviD
Duration : 1h 23mn
Bit rate : 1 880 Kbps
Width : 720 pixels
Height : 304 pixels
Display aspect ratio : 2.35:1
Frame rate : 25.000 fps
Color space : YUV
Chroma subsampling : 4:2:0
Bit depth : 8 bits
Scan type : Progressive
Bits/(Pixel*Frame) : 0.344
Stream size : 1.10 GiB (80%)
Writing library : XviD 58

Audio
ID : 1
Format : AC-3
Format/Info : Audio Coding 3
Mode extension : CM (complete main)
Codec ID : 2000
Duration : 1h 23mn
Bit rate mode : Constant
Bit rate : 448 Kbps
Channel(s) : 6 channels
Channel positions : Front: L C R, Side: L R, LFE
Sampling rate : 48.0 KHz
Bit depth : 16 bits
Video delay : 16ms
Stream size : 268 MiB (19%)
Alignment : Split accross interleaves
Interleave, duration : 40 ms (1.00 video frame)
Interleave, preload duration : 500 ms

Screens:
image
image
image
image

Related Torrents

torrent name size files age seed leech

Sharing Widget


Download torrent
1.38 GB
seeders:0
leechers:0
Priest.2011.R5.LiNE.AC3.XViD-EP1C

Trackers

tracker name Status checked seeders leechers downloads
udp://tracker.publicbt.com:80/announce
outdated 02 Oct 2013 - - -
udp://tracker.openbittorrent.com:80/announce
outdated 02 Oct 2013 - - -
http://pow7.com/announce
outdated 26 Sep 2013 - - -
http://10.rarbg.com/announce
private 26 Sep 2013 - - -
http://tracker.openbittorrent.com/announce
outdated 26 Sep 2013 - - -
http://nemesis.1337x.org/announce
outdated 26 Sep 2013 - - -
http://tracker.ccc.de/announce
outdated 26 Sep 2013 - - -
http://exodus.1337x.org/announce
outdated 26 Sep 2013 - - -
http://inferno.demonoid.me:3392/announce
outdated 26 Sep 2013 - - -
http://genesis.1337x.org:1337/announce
outdated 26 Sep 2013 - - -
http://nyaatorrents.info:3277/announce
outdated 26 Sep 2013 - - -
udp://tracker.ccc.de:80/announce
deleted 26 Sep 2013 - - -
http://tracker.publicbt.com/announce
deleted 26 Sep 2013 - - -
µTorrent compatible trackers list

Locations

name
KickassTorrents
ThePirateBay
1337x
Limetorrents
ExtraTorrent
BTjunkie
Torrent hash: DB3F5EA950B1056E5B089C0905CC59E0CD6E921A

Top Comments

40
anonymous • 03 Jun 2011, 00:03
audio: 7video: 7
The story had REALLY great potential, and it could have been a very epic movie, but this movie just went to hell. Its worth it is you have absolutely nothing to do, but it was no surprises, no twists, no excitement, nothing good. Quality is good tho :)
21
nedjima194 • 02 Jun 2011, 23:01
torrent downloaded
very good ..
14
MaX-_-RoN5737 • 03 Jun 2011, 04:09
torrent downloaded
audio: 9video: 9
Good stuff!

All Comments

audio
8/10
video
8/10
please, leave only comments related to that torrent
or sign-in
0
Walter18157 • 26 October 2013, 00:41
torrent downloaded
Show comment
audio: 10video: 10
My dear old mother just loves anything that has vampires, werewolves and scary monsters this one was absolutely great to watch. V10 A10 Thank you.
0
McMASS73 • 04 October 2013, 23:06
torrent downloaded
Show comment
Quite well done for the genre.
0
McMASS73 • 04 October 2013, 23:05
torrent downloaded
Show comment
audio: 9video: 9
Quite well done for the genre.
0
aciire992 • 21 September 2013, 22:00
torrent downloaded
Show comment
audio: 9video: 9
Damn this movie is king!
Thanks to the ripped and the uploader!
0
XenChaotik14.95K • 31 August 2013, 23:46
torrent downloaded
Show comment
audio: 8video: 8
Thanks
0
SKR00076285 • 30 August 2013, 17:15
torrent downloaded
Show comment
audio: 8video: 8
thanks for the upload
0
haveluloto81 • 28 August 2013, 18:08 Show comment
audio: 10video: 10
awesome movie thanks uploader
0
*hamilton*317 • 25 August 2013, 23:16
torrent downloaded
Show comment
Awesome movie thanks!
Show More All

User Opinions

Mr.Blonde180.22K, q8djent5553, BuFu2251, markozlatni1337, Alrhino815, xDevlinx21642, busulbgerz226, geo33like226, hoodking8790, shishtox80 ... And 1893 more
amayita3326, Gingi1786, djlucky2646, thebuzzzz287, Ayreds250, MentalRape204, evilinsydme117, brucem37, hrambo6314, jairo_martell3 ... And 86 more
Report a bug