Prisoners (2013) DVDRip XviD-MAXSPEED

seeders: 66
leechers: 10
Added on Nov 12, 2013 by piratepedia700.29K in Movies
Torrent verified. Downloaded 48,156 times.

Summary:
When Keller Dover's daughter and her friend go missing, he takes matters into his own hands as the police pursue multiple leads and the pressure mounts. But just how far will this desperate father go to protect his family?
Written by DeadShot10135.67K
report summary
Prisoners (2013) DVDRip XviD-MAXSPEED (Size: 1.74 GB)
  Prisoners (2013) DVDRip XviD-MAXSPEED www.torentz.3xforum.ro.avi 1.72 GB
  sample.avi 13.92 MB
  screencaps.jpeg 605.98 KB
  Prisoners (2013) DVDRip XviD-MAXSPEED.nfo 3.33 KB
  Torrent Downloaded From kickass.to.txt 50 bytes
  Torrent Downloaded From ExtraTorrent.cc.txt 39 bytes
  Torrent downloaded from Rarbg.com.txt 33 bytes

Description

http://www.torentz.3xforum.ro/post/3278/1/Prisoners_2013_DVDRip_XviD-MAXSPEED/

image

Screens:

image
image
image
image

ScreenCaps:

image

Prisoners (2013) DVDRip XviD-MAXSPEED
Format : AVI
Format/Info : Audio Video Interleave
Format profile : OpenDML
Format settings : rec
File size : 1.72 GiB
Duration : 2h 33mn
Overall bit rate : 1 610 Kbps
Writing application : VirtualDubMod 1.5.10.2 (build 2542/release)
Writing library : VirtualDubMod build 2542/release
Original source form : MAX TORRENTZ
Copyright : SIGISMUNT

Video
ID : 0
Format : MPEG-4 Visual
Format profile : Advanced Simple@L5
Format settings, BVOP : 1
Format settings, QPel : No
Format settings, GMC : No warppoints
Format settings, Matrix : Custom
Codec ID : XVID
Codec ID/Hint : XviD
Duration : 2h 33mn
Bit rate : 1 221 Kbps
Width : 720 pixels
Height : 400 pixels
Display aspect ratio : 16:9
Frame rate : 23.976 fps
Color space : YUV
Chroma subsampling : 4:2:0
Bit depth : 8 bits
Scan type : Progressive
Compression mode : Lossy
Bits/(Pixel*Frame) : 0.177
Stream size : 1.31 GiB (76%)
Writing library : XviD 1.2.1 (UTC 2008-12-04)

Audio
ID : 1
Format : AC-3
Format/Info : Audio Coding 3
Mode extension : CM (complete main)
Format settings, Endianness : Big
Codec ID : 2000
Duration : 2h 33mn
Bit rate mode : Constant
Bit rate : 384 Kbps
Channel(s) : 6 channels
Channel positions : Front: L C R, Side: L R, LFE
Sampling rate : 48.0 KHz
Bit depth : 16 bits
Compression mode : Lossy
Stream size : 421 MiB (24%)
Alignment : Aligned on interleaves
Interleave, duration : 64 ms (1.53 video frames)
Interleave, preload duration : 192 ms

Source: WEBDL DVD (perfect a/v/sync quality,sample included)
This torrent is not seedbox supported,please seed it to the MAX

Note:If you have something to offer as early releases,seedboxes,
links,accounts,etc please contact us on torentz 3xforum ro

How To Get Your MAXSPEED (uTorrent)

Torrent Client - Preferences - Bandwidth - Number of connections - Set aprox. 500 for each
Torrent Client - Preferences - BiTorrent - Protocol Encryption - Forced
Bandwidth Allocation - High (Set download/upload limit - Unlimited)
Stop Other Active Torrents - Start downloading and wait for connections.
Enjoy and Seed for at least 1:1 ratio. Don't forget to say thanks/leave reviews.
If screens/Caps image host is dead google search "release name""screens" or "sample".
Greets to all actual/future p2p/scene QUALITY groups and affiliate websites.
Don't trust IMDb robot or bad ratings,always watch some trailers first.
Ignore stupid comments/fake/mislabeled/no-DVDrips/CAM/TS/RAR uploads.
Please spread this release/torrent to your friends/forums/etc.
If you need translation subs visit some subtitles sites.
Report if you see online streaming or other spam links.
Recommended movie player VLC PLAYER.

Sharing Widget


Download torrent
1.74 GB
seeders:66
leechers:10
Prisoners (2013) DVDRip XviD-MAXSPEED

Trackers

tracker name Status checked seeders leechers downloads
udp://tracker.istole.it:80/announce
outdated 27 Oct 2014 - - -
udp://tracker.publicbt.com:80/announce
outdated 27 Oct 2014 - - -
udp://9.rarbg.com:2710/announce
outdated 27 Oct 2014 - - -
udp://open.demonii.com:1337/announce
outdated 27 Oct 2014 - - -
udp://tracker.coppersurfer.tk:6969/announce
outdated 27 Oct 2014 - - -
udp://tracker.openbittorrent.com:80/announce
outdated 27 Oct 2014 - - -
udp://tracker.seedceo.com:2710/announce
blocked 01 Dec 2013 - - -
udp://bt.rghost.net:80/announce
pending 27 Oct 2014 55 10 10
udp://tracker.zond.org:80/announce
pending 27 Oct 2014 55 10 10
udp://tracker.token.ro:80/announce
pending 27 Oct 2014 59 6 10
µTorrent compatible trackers list

Locations

name
KickassTorrents
Torrent hash: B60B1C04EBBD339A9AE771A330F6179943C309F9

Top Comments

2
Yorkhesan236 • 15 Nov 2013, 02:20
Take your spam somewhere else!

All Comments

audio
9/10
video
9/10
please, leave only comments related to that torrent
or sign-in
0
Survivor389626 • 21 June 2014, 15:21
torrent downloaded
Show comment
audio: 9video: 9
Always good stuff. Thank you!
0
crazydave531453 • 18 February 2014, 00:20
torrent downloaded
Show comment
very nice quality maxspeed 9/9 thanx
0
JeanBaptisteV1210 • 25 December 2013, 11:05
torrent downloaded
Show comment
audio: 9video: 9
0
stevezaqee1880 • 22 December 2013, 21:11
torrent downloaded
Show comment
audio: 9video: 9
great print, great movie
0
bexstaz703 • 20 December 2013, 23:31
torrent downloaded
Show comment
Thanx for uploading :D good flick cheers
0
Rob_Jackal204 • 19 December 2013, 03:31
torrent downloaded
Show comment
audio: 9video: 9
Great Movie!!
0
Antihippy6782 • 17 December 2013, 19:50
torrent downloaded
Show comment
audio: 9video: 10
Amazing quality. Thanks for the upload!
0
amaliage280 • 14 December 2013, 12:54
torrent downloaded
Show comment
audio: 10video: 10
great mouvie !! thanks
0
starlight068505 • 13 December 2013, 06:46
torrent downloaded
Show comment
audio: 9video: 9
fast download. great audio and video thanks :)
0
TetrapsiFiosz2247 • 12 December 2013, 23:36 Show comment
audio: 10video: 10
Very strong movie.
It leaves a bitter taste in your month, regarding how awfull people can be, and what we are capable of doing...
Show More All

User Opinions

mop_66662437, Sange2336, toxictoadz1243, ricta1080, mitimedia418, ashkan_2200353, Gr1m5n1p3r86289, bradfun204, IrfanBiH162, manuelrm69 ... And 192 more
farshaikh1476, kingsavage84150, A.Ristova30
Report a bug