Projeto Thomaz Farkas 2 - Geraldo Sarno - Enciclopedia Audiovis

seeders: 1
leechers: 0
Added on May 13, 2010 in Movies
Torrent verified. Downloaded 10 times.

Projeto Thomaz Farkas 2 - Geraldo Sarno - Enciclopedia Audiovis (Size: 1.06 GB)
  A Cantoria (1970).avi 205.42 MB
  Jornal do Sertão (1970).avi 184.48 MB
  Casa de Farinha (1970).avi 175.7 MB
  O Engenho (1970).avi 133.49 MB
  Padre Cícero O Patriarca de Juazeiro (1972).avi 132.27 MB
  Vitalino - Lampião (1969).avi 127.6 MB
  Os Imaginários (1970).avi 127.31 MB
  Projeto Thomaz Farkas - Geraldo Sarno - Enciclopédia Audiovisual da Cultura Popular.jpg 2.11 MB

Description

Projeto Thomaz Farkas 2 - Geraldo Sarno - Enciclopédia Audiovisual da Cultura Popular

Project Thomaz Farkas is a collection of 39 documentaries produced by Thomas Farkas in the 1960s and 1970s, featuring various cultural events of Brazil linked to the specific reality of each region. The documentaries were organized in a box containing seven discs, and include a short interview with the participation of renowned photographer, producer and documentary filmmaker, exposing a broad universe of Brazilian culture.

The Disc 2 contains the following documentaries by Geraldo Sarno:

A Cantoria (1970)
Casa de Farinha (1970)
Jornal do Sertão (1970)
O Engenho (1970)
Os Imaginários (1970)
Padre Cícero O Patriarca de Juazeiro (1972)
Vitalino - Lampião (1969)

All films have Portuguese audio, and no subtitles. There's a 300 dpi scan of the DVD cover included.

General
Complete name : Projeto Thomaz Farkas - Geraldo Sarno - Enciclopédia Audiovisual da Cultura Popular.avi
Format : AVI
Format/Info : Audio Video Interleave
File size : 1.06 GiB
Duration : 1h 18mn
Overall bit rate : 1 945 Kbps
Writing application : VirtualDubMod 1.5.10.2 (build 2540/release)
Writing library : VirtualDubMod build 2540/release
Video #0
ID : 0
Format : MPEG-4 Visual
Format profile : AdvancedSimple@L5
Format settings, BVOP : Yes
Format settings, QPel : No
Format settings, GMC : No warppoints
Format settings, Matrix : Default (MPEG)
Muxing mode : Packed bitstream
Codec ID : XVID
Codec ID/Hint : XviD
Duration : 1h 18mn
Bit rate : 1 711 Kbps
Width : 624 pixels
Height : 464 pixels
Display aspect ratio : 4:3
Frame rate : 23.976 fps
Resolution : 24 bits
Colorimetry : 4:2:0
Scan type : Progressive
Bits/(Pixel*Frame) : 0.247
Stream size : 956 MiB (88%)
Writing library : XviD 1.2.0.dev47 (UTC 2006-11-01)
Audio #1
ID : 1
Format : AC-3
Format/Info : Audio Coding 3
Codec ID : 2000
Duration : 1h 18mn
Bit rate mode : Constant
Bit rate : 224 Kbps
Channel(s) : 2 channels
Channel positions : L R
Sampling rate : 48.0 KHz
Stream size : 125 MiB (12%)
Alignment : Split accross interleaves
Interleave, duration : 42 ms (1.00 video frame)
Interleave, preload duration : 500 ms

Each part was ripped and is presented individually. The specs refer to all films assembled togheter.

Sharing Widget


Download torrent
1.06 GB
seeders:1
leechers:0
Projeto Thomaz Farkas 2 - Geraldo Sarno - Enciclopedia Audiovis

Trackers

tracker name Status checked seeders leechers downloads
http://pow7.com/announce
outdated 09 May 2012 - - -
http://tracker.openbittorrent.com/announce
outdated 16 Jun 2010 - - -
udp://tracker.publicbt.com:80/announce
outdated 13 May 2010 - - -
udp://tracker.torrentbox.com:2710/announce
outdated 13 May 2010 - - -
udp://tracker.openbittorrent.com:80/announce
outdated 13 May 2010 - - -
http://tracker.publicbt.com/announce
deleted 18 Aug 2011 - - -
http://tracker.torrentbox.com:2710/announce
error 25 Sep 2010 - - -
http://www.torrent-downloads.to:2710/announce
error 13 May 2010 - - -
http://www.torrentsnipe.info:2701/announce
error 13 May 2010 - - -
http://www.sumotracker.com/announce
error 13 May 2010 - - -
http://tracker.torrentfr.org:56666/announce
error 13 May 2010 - - -
µTorrent compatible trackers list

Locations

name
ThePirateBay
Torrent hash: ee9e2da119aa78f434245bcd7777968257426b1d

All Comments

audio
0/10
video
0/10
please, leave only comments related to that torrent
or sign-in
Report a bug