Public Enemies.x264.AC3.(5.1).{18}Multi_Sub.mkv

seeders: 1
leechers: 0
Added on Mar 23, 2010 in Movies
Torrent verified. Downloaded 0 times.

Summary:
The Feds try to take down notorious American gangsters John Dillinger, Baby Face Nelson and Pretty Boy Floyd during a booming crime wave in the 1930s.
Written by Anette14122.27K
report summary
Public Enemies.x264.AC3.(5.1).{18}Multi_Sub.mkv (Size: 1.3 GB)
  Public Enemies.mkv 1.3 GB

Description

General
Complete name : Public Enemies.mkv
Format : Matroska
File size : 1.30 GiB
Duration : 2h 20mn
Overall bit rate : 1 324 Kbps
Writing application : HandBrake 0.9.4

Video
ID : 1
Format : AVC
Duration : 2h 20mn
Bit rate : 849 Kbps
Width : 720 pixels
Height : 356 pixels
Display aspect ratio : 2.35:1
Resolution : 8 bits
Colorimetry : 4:2:0
Scan type : Progressive
Bits/(Pixel*Frame) : 0.133
Stream size : 851 MiB (64%)
Writing library : x264 core 79

Audio
ID : 2
Format : AC-3
Format/Info : Audio Coding 3
Codec ID : A_AC3
Duration : 2h 20mn
Bit rate mode : Constant
Bit rate : 448 Kbps
Channel(s) : 6 channels
Channel positions : Front: L C R, Side: L R, LFE
Sampling rate : 48.0 KHz
Stream size : 449 MiB (34%)
Language : English

Text #1
Language : English

Text #2
Language : French

Text #3
Language : Spanish

Text #4
Language : Chinese

Text #5
Language : Dutch

Text #6
Language : Portuguese

Text #7
Language : Arabic

Text #8
Language : Croatian

Text #9
Language : Czech

Text #10
Language : Finnish

Text #11
Language : Hungarian

Text #12
Language : Polish

Text #13
Language : Romanian

Text #14
Language : Turkish

Text #15
Language : Vietnamese

Text #16
Language : Danish

Text #17
Language : Swedish

Text #18
Language : Norwegian

Menu
00:00:00.000 : Chapter 1

Related Torrents

torrent name size files age seed leech

Sharing Widget


Download torrent
1.3 GB
seeders:1
leechers:0
Public Enemies.x264.AC3.(5.1).{18}Multi_Sub.mkv

Trackers

tracker name Status checked seeders leechers downloads
udp://tracker.openbittorrent.com:80/announce
outdated 18 Nov 2013 - - -
udp://tracker.publicbt.com:80/announce
outdated 18 Nov 2013 - - -
http://tracker.openbittorrent.com/announce
outdated 02 May 2010 - - -
http://tracker.publicbt.com/announce
deleted 11 Mar 2013 - - -
ĀµTorrent compatible trackers list

Locations

name
ThePirateBay
Torrent hash: 39572b8012060220e4ed6d6ce0faef422f811326

All Comments

audio
0/10
video
0/10
please, leave only comments related to that torrent
or sign-in
Report a bug