Raju Shrivastava's Non-Stop 4rs Jokes Hindi MUST HAVE [HBK]

seeders: 0
leechers: 0
Added on Jan 26, 2009 in Other > Unsorted
Torrent verified. Downloaded 0 times.

Raju Shrivastava's Non-Stop 4rs Jokes Hindi MUST HAVE [HBK] (Size: 697.37 MB)
  hbk.jpg 117.42 KB
  Raju Shrivastava Jokes.nfo 2.89 KB
  Raju Srivastav's Jokes 4hrs Nonstop[HBK].avi 697.26 MB
  tracked_by_h33t_com.txt 23 bytes

Description




::The HBK Him Proudly Present::



=================================================================

HBK,HBK HBK,HBK HBK,HBKHBK,HBK HBK,HBK HBK =

HBK,HBK HBK,HBK HBK,HBKH HBK HBK,HBK HBK =

HBK,HBK HBK,HBK HBK,HBKH ,HBK HBK,HBK HBK =

HBK,HBKHBK,HBKHBK,HBK HBK,HBKHBK,HBK HBK,HBK HBK =

HBK,HBKHBK,HBKHBK,HBK HBK,HBK HBK,HBKHBK =

HBK,HBKHBK,HBKHBK,HBK HBK,HBKHBK,HBK HBK,HBK HBK =

HBK,HBKHBK,HBKHBK,HBK HBK,HBKH HBK HBK,HBK HBK =

HBK,HBK HBK,HBK HBK,HBKH HBK HBK,HBK HBK =

HBK,HBK HBK,HBK HBK,HBKHBK,HBK HBK,HBK HBK =

=================================================================

The Best of Raju Shrivastava Jokes



Please read befor downloading

I cant keep open my connection everytime. You must keep patience while downloading my big torrents. I will keep try to open my connection.

================================================================================================================





General



Format : AVI

Format/Info : Audio Video Interleave

File size : 697 MiB

Duration : 4h 2mn

Overall bit rate : 402 Kbps

Writing application : VirtualDubMod 1.5.4.1 (build 2178/release)

Writing library : VirtualDubMod build 2178/release



Video

Format : MPEG-4 Visual

Format profile : Streaming Video@L1

Format settings, BVOP : Yes

Format settings, QPel : No

Format settings, GMC : No warppoints

Format settings, Matrix : Custom

Codec ID : XVID

Codec ID/Hint : XviD

Duration : 4h 2mn

Bit rate : 284 Kbps

Width : 256 pixels

Height : 192 pixels

Display aspect ratio : 4/3

Frame rate : 29.970 fps

Resolution : 24 bits

Colorimetry : 4:2:0

Scan type : Progressive

Bits/(Pixel*Frame) : 0.193

Stream size : 492 MiB (71%)

Writing library : XviD 1.2.0SMP (UTC 2006-01-08)



Audio

Format : MPEG Audio

Format version : Version 1

Format profile : Layer 3

Codec ID : 55

Codec ID/Hint : MP3

Duration : 4h 2mn

Bit rate mode : Variable

Bit rate : 104 Kbps

Minimum bit rate : 128 Kbps

Channel(s) : 2 channels

Sampling rate : 48.0 KHz

Resolution : 16 bits

Stream size : 181 MiB (26%)

Alignment : Aligned on interleaves

Interleave, duration : 24 ms (0.72 video frame)

Interleave, preload duration : 519 ms

Writing library : LAME3.97b

Encoding settings : ABR


Sharing Widget


Download torrent
697.37 MB
seeders:0
leechers:0
Raju Shrivastava's Non-Stop 4rs Jokes Hindi MUST HAVE [HBK]

Trackers

tracker name Status checked seeders leechers downloads
http://www.h33t.com:3310/announce
deleted 09 Nov 2012 - - -
ĀµTorrent compatible trackers list

Locations

name
Mininova
SumoTorrent
Torrentzap
Torrent hash: 0c0157f4411270c1cc760ae16e53f0b3dc2ae5a3

All Comments

please, leave only comments related to that torrent
or sign-in
0
arpit.soni1111 • 30 June 2013, 11:12
torrent downloaded
Show comment
seed karo
0
anonymous • 06 February 2012, 08:19 Show comment
nice..
0
Digesh1763 • 20 May 2011, 06:27
torrent downloaded
Show comment
mobile quality.......
0
crackmind00736 • 14 March 2010, 13:47
torrent downloaded
Show comment
good

User Opinions

Report a bug