Red Line [2007] - BRRip - 720p - x264 - AC3 - [Dual-Audio] - [Hindi+English] - seTul34

seeders: 2
leechers: 5
Added on Jul 23, 2013 in Movies > Highres Movies
Downloaded 10 times.

Summary:
A Los Angeles subway train is brought to a slamming stop, the tunnel partially collapsed, and several people injured. The survivors must figure out what caused it, and must deal with the greater danger that soon faces them.
Written by Mr.Gooner217.58K
report summary
Available in versions: 1080p720pBDRipHDRiPDVDDVDRipVCD
Red Line [2007] - BRRip - 720p - x264 - AC3 - [Dual-Audio] - [Hindi+English] - seTul34 (Size: 1.18 GB)
  Red Line [2007] - BRRip - 720p - x264 - AC3 - [Dual-Audio] - [Hindi+English] - seTul34.mkv 1.16 GB
  SAMPLE - Red Line [2007] - seTul34.mkv 12.81 MB
  setul34 Banner.png 168.21 KB
  Torrent downloaded from extratorrent.com.txt 367 bytes

Description


**Red Line - 2007**

*Dual Audio - [Hindi+English]*

*2 pass Encode*

~setul34 - Quality Releaser~



~:Media Info:~

Code:
General
Complete name : Red Line [2007] - seTul34.mkv
Format : Matroska
Format version : Version 2
File size : 1.16 GiB
Duration : 1h 33mn
Overall bit rate : 1 785 Kbps

Video
ID : 1
Format : AVC
Format/Info : Advanced Video Codec
Codec ID : V_MPEG4/ISO/AVC
Duration : 1h 33mn
Bit rate : 1 545 Kbps
Width : 1 280 pixels
Height : 528 pixels
Display aspect ratio : 2.40:1
Frame rate mode : Constant
Frame rate : 23.976 fps
Color space : YUV
Chroma subsampling : 4:2:0
Stream size : 1 008 MiB (85%)

Audio #1
ID : 2
Format : AC-3
Format/Info : Audio Coding 3
Codec ID : A_AC3
Duration : 1h 33mn
Bit rate mode : Constant
Bit rate : 128 Kbps
Channel(s) : 2 channels
Sampling rate : 48.0 KHz
Bit depth : 16 bits
Stream size : 85.4 MiB (7%)
Language : Hindi

Audio #2
ID : 3
Format : AC-3
Format/Info : Audio Coding 3
Codec ID : A_AC3
Duration : 1h 33mn
Bit rate mode : Constant
Bit rate : 112 Kbps
Channel(s) : 2 channels
Sampling rate : 48.0 KHz
Bit depth : 16 bits
Stream size : 74.8 MiB (6%)
Language : English


Quality Releaser ~ seTul34 wrote:
Problem-* Screenshots Wont Be Clear As It Is When It's Downloaded!

Reason-* Screenshots Have Been Taken From Windows Server!

Solution-* Please Check The Sample Link Provided Below!~:ScreenShot:~




~: SAMPLE :~


Don't Forget To Say "Thanks"! And "Comment"! If You Like My Post!

If You Don't Reply, This Post Will "Die"!

Check Sample Before "Commenting"!


Super Seeding


Click Here To Add Review


Related Torrents

torrent name size files age seed leech

Sharing Widget


Download torrent
1.18 GB
seeders:2
leechers:5
Red Line [2007] - BRRip - 720p - x264 - AC3 - [Dual-Audio] - [Hindi+English] - seTul34

Trackers

tracker name Status checked seeders leechers downloads
udp://tracker.istole.it:80/announce
outdated 16 Aug 2014 - - -
udp://tracker.publicbt.com:80/announce
outdated 16 Aug 2014 - - -
udp://9.rarbg.com:2710/announce
outdated 16 Aug 2014 - - -
udp://tracker.openbittorrent.com:80/announce
outdated 16 Aug 2014 - - -
udp://11.rarbg.me:80/announce
blocked 16 Aug 2014 - - -
http://p2pdl.com:2710/announce
deleted 24 Jul 2013 - - -
udp://fr33dom.h33t.com:3310/announce
deleted 24 Jul 2013 - - -
udp://fr33domtracker.h33t.com:3310/announce
deleted 24 Jul 2013 - - -
udp://ipv4.tracker.harry.lu:80/announce
pending 16 Aug 2014 1 4 10
http://www.tellytorrents.com:2710/00000029ee85e00bd3ee56e0845a9639/announce
pending 24 Jul 2013 4 86 6
ĀµTorrent compatible trackers list

Locations

name
ExtraTorrent
Torrent hash: 07B39EF2D840372994CB23C29C00F205F75CAD83

All Comments

audio
10/10
video
10/10
please, leave only comments related to that torrent
or sign-in
0
anonymous • 13 March 2014, 03:36 Show comment
is this car movie
0
anonymous • 15 November 2013, 21:44 Show comment
audio: 10video: 10
nice movie
0
otis3p2989 • 08 September 2013, 02:53
torrent downloaded
Show comment
thanks
-1
anonymous • 24 July 2013, 17:34 Show comment
which movie is this???

User Opinions

otis3p2989, durrrr795, melie2554386, setul34128, silentd3vil101
Report a bug