Robin Hood (2010) UNRATED DVDRip XviD - MovieBuffer.avi

seeders: 1
leechers: 0
Added on Sep 11, 2010 in Movies
Downloaded 201 times.

Summary:
In 13th century England, Robin and his band of marauders confront corruption in a local village and lead an uprising against the crown that will forever alter the balance of world power.
Written by 5fingerdis47.88K
report summary
Robin Hood (2010) UNRATED DVDRip XviD - MovieBuffer.avi (Size: 1.43 GB)
  Robin Hood (2010) UNRATED DVDRip XviD - MovieBuffer.avi 1.43 GB

Description

Description:

Robin Hood (2010) UNRATED DVDRip XviD - MovieBuffer

Format : AVI
Format/Info : Audio Video Interleave
Format profile : OpenDML
File size : 1.43 GiB
Duration : 2h 29mn
Overall bit rate : 1 369 Kbps
Writing application : VirtualDubMod 1.5.10.2 (build 2542/release)
Writing library : VirtualDubMod build 2542/release
Original source form : MAX TORRENTZ
Copyright : SIGISMUNT

Video
ID : 0
Format : MPEG-4 Visual
Format profile : AdvancedSimple@L5
Format settings, BVOP : Yes
Format settings, QPel : No
Format settings, GMC : No warppoints
Format settings, Matrix : Custom
Codec ID : XVID
Codec ID/Hint : XviD
Duration : 2h 29mn
Bit rate : 1 173 Kbps
Width : 720 pixels
Height : 304 pixels
Display aspect ratio : 2.35:1
Frame rate : 25.000 fps
Resolution : 24 bits
Colorimetry : 4:2:0
Scan type : Progressive
Bits/(Pixel*Frame) : 0.214
Stream size : 1.22 GiB (86%)
Writing library : XviD 1.2.1 (UTC 2008-12-04)

Audio
ID : 1
Format : MPEG Audio
Format version : Version 1
Format profile : Layer 3
Codec ID : 55
Codec ID/Hint : MP3
Duration : 2h 29mn
Bit rate mode : Constant
Bit rate : 192 Kbps
Channel(s) : 2 channels
Sampling rate : 48.0 KHz
Resolution : 16 bits
Stream size : 205 MiB (14%)
Alignment : Aligned on interleaves
Interleave, duration : 623 ms (15.58 video frames)
Interleave, preload duration : 216 ms
Writing library : LAME3.98.2

Screenshots:



Screencaps:

Sharing Widget


Download torrent
1.43 GB
seeders:1
leechers:0
Robin Hood (2010) UNRATED DVDRip XviD - MovieBuffer.avi

Trackers

tracker name Status checked seeders leechers downloads
http://genesis.1337x.org:1337/announce
outdated 13 Jul 2011 - - -
http://exodus.1337x.org/announce
outdated 13 Jul 2011 - - -
http://nemesis.1337x.org/announce
outdated 13 Jul 2011 - - -
http://tracker.openbittorrent.com/announce
outdated 11 Sep 2010 - - -
udp://tracker.openbittorrent.com:80/announce
outdated 11 Sep 2010 - - -
udp://tracker.publicbt.com:80/announce
outdated 11 Sep 2010 - - -
http://tracker.publicbt.com/announce
deleted 11 Mar 2013 - - -
http://www.torrent-downloads.to:2710/announce
error 11 Sep 2010 - - -
http://www.sumotracker.com/announce
error 11 Sep 2010 - - -
ĀµTorrent compatible trackers list

Locations

name
ExtraTorrent
Torrent hash: e073a0ee7b92e69c33f1571c089ca0f28be971f0

All Comments

audio
0/10
video
0/10
please, leave only comments related to that torrent
or sign-in
Report a bug