Advertising (remove)

Screw My Wife Please 56 XXX DVDRip XviD

seeders: 6
leechers: 19
Added on Aug 8, 2013 by plkxxx14.71K in XXX > Video
Torrent verified. Downloaded 26 times.

Screw My Wife Please 56 XXX DVDRip XviD (Size: 1.36 GB)
  Screw My Wife Please 56.nfo 1.66 KB
  Screw.My.Wife.Please.56(CD2).avi 697.57 MB
  Screw.My.Wife.Please.56(CD1).avi 698.21 MB
Advertising (remove)

Description

Screw My Wife Please 56 XXX DVDRip XviD


http://www.hostpics.info/view.php?filename=974smwc156.jpeg

http://www.hostpics.info/view.php?filename=705smw256.jpeg


Screw My Wife Please # 56: Turn Her Loose DVD video These wives may not be able to cook, but they can fuck the hell out of a porn star.



Video
Format: MPEG-4 Visual
Format profile: Streaming Video@L1
Format settings, BVOP: Yes
Format settings, QPel: No
Format settings, GMC: No warppoints
Format settings, Matrix: Default
Codec ID: XVID
Codec ID/Hint: XviD
Duration: 1h 9mn
Bit rate: 1 258 Kbps
Width: 512 pixels
Height: 288 pixels
Display aspect ratio: 16/9
Frame rate: 29.970 fps
Resolution: 24 bits
Colorimetry: 4:2:0
Scan type: Progressive
Bits/(Pixel*Frame): 0.285
Stream size: 630 MiB (90%)
Writing library: XviD 1.1.2 (UTC 2006-11-01)

Audio
Format: MPEG Audio
Format version: Version 1
Format profile: Layer 3
Codec ID: 55
Codec ID/Hint: MP3
Duration: 1h 9mn
Bit rate mode: Variable
Bit rate: 125 Kbps
Channel(s): 2 channels
Sampling rate: 48.0 KHz
Resolution: 16 bits
Stream size: 62.6 MiB (9%)
Alignment: Aligned on interleaves
Interleave, duration: 24 ms (0.72 video frame)
Interleave, preload duration: 470 ms
Thanks

Related Torrents

torrent name size files age seed leech

Sharing Widget


Download torrent
1.36 GB
seeders:6
leechers:19
Screw My Wife Please 56 XXX DVDRip XviD

Trackers

tracker name Status checked seeders leechers downloads
http://tracker.openbittorrent.com/announce
outdated 27 Aug 2013 - - -
udp://fr33dom.h33t.com:3310/announce
deleted 27 Aug 2013 - - -
http://tracker.publicbt.com:80/announce
error 08 Aug 2013 - - -
ĀµTorrent compatible trackers list

Locations

name
KickassTorrents
Torrent hash: 27D1EF2C7346D0D60FDCE4453888B5F6BE1A50F6

All Comments

audio
0/10
video
0/10
please, leave only comments related to that torrent
or sign-in

User Opinions

Report a bug