Sherlock Holmes A Game Of Shadows 2011 BRRiP AC3 XViD -INSPiRAL

seeders: 2
leechers: 1
Added on Apr 15, 2012 by legend64.85K in Movies
Torrent verified. Downloaded 10 times.

Summary:
Sherlock Holmes and his sidekick Dr. Watson join forces to outwit and bring down their fiercest adversary, Professor Moriarty.
Written by Firestorm.22.82K
report summary
Sherlock Holmes A Game Of Shadows 2011 BRRiP AC3 XViD -INSPiRAL (Size: 1.96 GB)
  Sherlock Holmes A Game Of Shadows 2011 BRRiP AC3 XViD - INSPiRAL.avi 1.96 GB
  Torrent downloaded from extratorrent.com.txt 353 bytes
  Sherlock Holmes A Game Of Shadows 2011 BRRiP AC3 XViD - INSPiRAL.nfo 3.51 KB

Description










image

TITLE:

Sherlock Holmes A Game Of Shadows 2011 BRRiP AC3 XViD - INSPiRAL

IMDB:

http://www.imdb.com/title/tt1515091/


SOURCES:

VIDEO - Sherlock Holmes A Game of Shadows 2011 German DL 720p BluRay x264-SONS THANKS
AUDIO - Sherlock Holmes A Game of Shadows 2011 German DL 720p BluRay x264-SONS THANKS
SUBS - ENG when needed

STATS:

Video
ID : 0
Format : MPEG-4 Visual
Format profile : Advanced Simple@L5
Format settings, BVOP : 2
Format settings, QPel : No
Format settings, GMC : No warppoints
Format settings, Matrix : Default (MPEG)
Muxing mode : Packed bitstream
Codec ID : XVID
Codec ID/Hint : XviD
Duration : 2h 8mn
Bit rate : 1 723 Kbps
Width : 720 pixels
Height : 304 pixels
Display aspect ratio : 2.35:1
Frame rate : 23.976 fps
Color space : YUV
Chroma subsampling : 4:2:0
Bit depth : 8 bits
Scan type : Progressive
Compression mode : Lossy
Bits/(Pixel*Frame) : 0.328
Stream size : 1.55 GiB (79%)
Writing library : XviD 64

Audio
ID : 1
Format : AC-3
Format/Info : Audio Coding 3
Mode extension : CM (complete main)
Codec ID : 2000
Duration : 2h 8mn
Bit rate mode : Constant
Bit rate : 448 Kbps
Channel(s) : 6 channels
Channel positions : Front: L C R, Side: L R, LFE
Sampling rate : 48.0 KHz
Bit depth : 16 bits
Compression mode : Lossy
Stream size : 413 MiB (21%)
Alignment : Aligned on interleaves
Interleave, duration : 42 ms (1.00 video frame)
Interleave, preload duration : 512 ms



NOTES:

Nice release by sons .....bitrate a little low IMHO for a 720p,but still never the less a top release,so thanks.
Just done a simple rip on the video and the audio i stripped the non english and encoded the english DTS to AC3 and remuxed.
Also there is english subs forced for when their needed....
Also will be totally honest and say i have slightly tweaked the video ...yes i know its a bluray and my tweaks are only small,but things i thought could and should have been better.
So before ya bitch with why mess ...grab the sample or file ...compare against the source then comment.


SCREENS:

image
image
image
image
image

Related Torrents

torrent name size files age seed leech

Sharing Widget


Download torrent
1.96 GB
seeders:2
leechers:1
Sherlock Holmes A Game Of Shadows 2011 BRRiP AC3 XViD -INSPiRAL

Trackers

tracker name Status checked seeders leechers downloads
http://tracker.ex.ua/announce
outdated 23 Jun 2014 - - -
udp://tracker.publicbt.com:80/announce
outdated 23 Jun 2014 - - -
udp://tracker.openbittorrent.com:80/announce
outdated 23 Jun 2014 - - -
http://tracker.torrentbay.to:6969/announce
outdated 02 Dec 2012 - - -
udp://tracker.istole.it:80/announce
outdated 18 Sep 2012 - - -
udp://tracker.1337x.org:80/announce
outdated 18 Sep 2012 - - -
http://exodus.desync.com:6969/announce
blocked 18 Sep 2012 - - -
http://fr33dom.h33t.com:3310/announce
deleted 17 May 2013 - - -
µTorrent compatible trackers list

Locations

name
KickassTorrents
ThePirateBay
Torrent hash: B455466AA48B8B5E3099CC4AE12AF04609A57AE4

All Comments

audio
9/10
video
9/10
please, leave only comments related to that torrent
or sign-in
0
LordIncognito785 • 18 August 2012, 06:12
torrent downloaded
Show comment
audio: 9video: 9
great stuff thanks!
0
renewed137 • 15 May 2012, 18:36
torrent downloaded
Show comment
audio: 9video: 9
Awesome Thanks
0
r.o.c.k.1524 • 12 May 2012, 07:10
torrent downloaded
Show comment
thankz!!!!!!!!!!!
0
iamakidilam22 • 10 May 2012, 06:10
torrent downloaded
Show comment
audio: 9video: 10
0
chem24208 • 05 May 2012, 03:23
torrent downloaded
Show comment
audio: 9video: 9
good quality
0
dududoom42 • 04 May 2012, 01:29
torrent downloaded
Show comment
audio: 10video: 10
0
tesslerryan117 • 02 May 2012, 19:31
torrent downloaded
Show comment
audio: 9video: 9
0
neeliesu980 • 02 May 2012, 10:45
torrent downloaded
Show comment
audio: 10video: 10
Very good copy thank you :)
0
deathkeeper64 • 01 May 2012, 06:10
torrent downloaded
Show comment
audio: 10video: 10
ONE OF THE GREATEST FILM EVER!!!! the concept in this film is amazing! if you like mind games! & JDR too good in his action
Show More All

User Opinions

xZulu7631, EyesWeThink2953, SpaWndeT1464, Camica1285, canvasbody356, battlebudy342, tanveer131282, Ler-x166, mikekiche88, anuag22 ... And 95 more
cabicak2156, jerkstore52103, mladen_4682, joyobroto25
Report a bug