Sherlock Holmes Gioco Di Ombre 2011 iTALiAN MD CAM XviD-P76

seeders: 15
leechers: 1
Added on Dec 23, 2011 by osalivan98 in Movies
Downloaded 153 times.

Summary:
Sherlock Holmes and his sidekick Dr. Watson join forces to outwit and bring down their fiercest adversary, Professor Moriarty.
Written by Firestorm.22.87K
report summary
Sherlock Holmes Gioco Di Ombre 2011 iTALiAN MD CAM XviD-P76 (Size: 1.99 GB)
  Sherlock Holmes Gioco Di Ombre 2011 iTALiAN MD CAM XviD-P76.avi 1.99 GB

Description

General
Complete name : Sherlock Holmes Gioco Di Ombre 2011 iTALiAN MD CAM XviD-P76 [www.italiastarfilm.com]
Format : AVI
Format/Info : Audio Video Interleave
Format profile : OpenDML
File size : 1.99 GiB
Duration : 1h 59mn
Overall bit rate : 2 387 Kbps
Writing application : Lavf51.12.1
Video
ID : 0
Format : xvid
Codec ID : xvid
Duration : 1h 59mn
Bit rate : 2 246 Kbps
Width : 720 pixels
Height : 480 pixels
Display aspect ratio : 3:2
Frame rate : 25.000 fps
Standard : NTSC
Bits/(Pixel*Frame) : 0.260
Stream size : 1.87 GiB (94%)
Audio
ID : 1
Format : MPEG Audio
Format version : Version 1
Format profile : Layer 3
Mode : Joint stereo
Mode extension : MS Stereo
Codec ID : 55
Codec ID/Hint : MP3
Duration : 1h 59mn
Bit rate mode : Constant
Bit rate : 128 Kbps
Channel(s) : 2 channels
Sampling rate : 48.0 KHz
Compression mode : Lossy
Stream size : 109 MiB (5%)
Alignment : Aligned on interleaves
Interleave, duration : 24 ms (0.60 video frame)
Interleave, preload duration : 24 ms

Related Torrents

torrent name size files age seed leech

Sharing Widget


Download torrent
1.99 GB
seeders:15
leechers:1
Sherlock Holmes Gioco Di Ombre 2011 iTALiAN MD CAM XviD-P76

Trackers

tracker name Status checked seeders leechers downloads
udp://tracker.publicbt.com:80/announce
outdated 04 Feb 2012 - - -
udp://tracker.openbittorrent.com:80/announce
outdated 04 Feb 2012 - - -
http://tracker.openbittorrent.com/announce
outdated 04 Feb 2012 - - -
http://tracker.publicbt.com/announce
deleted 11 Mar 2013 - - -
µTorrent compatible trackers list

Locations

name
KickassTorrents
Torrent hash: 4950F2D6B637D1DCA5DB319099777285B386E606

All Comments

audio
5/10
video
5/10
please, leave only comments related to that torrent
or sign-in
0
anonymous • 16 February 2012, 12:46 Show comment
se per questo un filmone seguirai celentano stasera!!!!!!!!!
0
anonymous • 03 February 2012, 18:01 Show comment
audio: 1video: 1
0
bruce847 • 01 February 2012, 20:58
torrent downloaded
Show comment
audio: 4video: 4
Aspetto di meglio
0
anonymous • 02 January 2012, 18:52 Show comment
audio: 5video: 4
0
andreafreccia748 • 28 December 2011, 13:32
torrent downloaded
Show comment
audio: 7video: 7
x essere cam è ok..xò io aspetto xkè un filmone così bisogna vederlo una volta e bene!
0
mocheca21298 • 27 December 2011, 17:02
torrent downloaded
Show comment
audio: 6video: 6
Chi si acontenta gode. Graziee
0
anonymous • 09 February 2012, 00:37 Show comment
segati allora!!
0
MrPurko1276 • 26 December 2011, 09:38
torrent downloaded
Show comment
audio: 6video: 6
guardabile
0
roa0061354 • 24 December 2011, 23:07
torrent downloaded
Show comment
audio: 5video: 5
-1
anonymous • 24 December 2011, 12:22 Show comment
p 76 e' un segaiolo nn e' capace resta a fare ste kazzate
-2
anonymous • 23 December 2011, 22:01 Show comment
fake, scene ripetute
Show More All

User Opinions

Report a bug