Super 8 2011 DVDSCR XViD AC3 - IMAGiNE

seeders: 2
leechers: 2
Added on Aug 5, 2011 by hail_alpha66.47K in Movies
Torrent verified. Downloaded 0 times.

Summary:
During the summer of 1979, a group of friends witness a train crash and investigate subsequent unexplained events in their small town.
Written by ROBBREDD689424
report summary
Super 8 2011 DVDSCR XViD AC3 - IMAGiNE (Size: 2.07 GB)
  NW RG.nfo 12.96 KB
  Super 8 2011 DVDSCR XViD AC3 - IMAGiNE SAMPLE.avi 13.65 MB
  Super 8 2011 DVDSCR XViD AC3 - IMAGiNE.avi 2.05 GB
  Super 8 2011 DVDSCR XViD AC3 - IMAGiNE.nfo 4.92 KB
  Torrent downloaded from Demonoid.me.txt 46 bytes
  att-networks.com.txt 39 bytes
  dreamthe.net.txt 91 bytes
  northernwarriors.net.txt 135 bytes
  Sceneunderground.org.txt 77 bytes

Description

image

Super 8 2011 DVDSCR XViD AC3 - IMAGiNE
Ripper ...........: IMAGiNE IMDB Rating.......:7.7/10 
Video Codec.......: XVID Release Date......:05/08/11
Audio Codec.......:AC3 Theatre Date......:17/06/11
Audio Bitrate.....:448 Runtime.......:1h 51mn
Subtitles.........:NIL Language..........:ENGLISH
Resolution......: 720 x 304 IMDb URL.......... http://www.imdb.com/title/tt1650062/

DETAILS:

Video
ID : 0
Format : MPEG-4 Visual
Format profile : Advanced Simple@L5
Format settings, BVOP : 2
Format settings, QPel : No
Format settings, GMC : No warppoints
Format settings, Matrix : Default (MPEG)
Muxing mode : Packed bitstream
Codec ID : XVID
Codec ID/Hint : XviD
Duration : 1h 1mn
Bit rate : 2 166 Kbps
Width : 720 pixels
Height : 304 pixels
Display aspect ratio : 2.35:
Frame rate : 23.96 fps
Color space : YU
Chroma subsampling : 42:0
Bit depth : 8 bts
Scan type : Progessive
Compression mode : Lossy
Bits/(Pixel*Frame) : 0.41
Stream size : 1.69 GiB (82%)
Writing library : XviD 64

Audio
ID : 1
Format : C-3
Format/Info : Auio Coding 
Mode extension : CM (complet main)
Codec ID : 200
Duration : 1h 51mn
Bit rate mode : Constt
Bit rate : 448 Kb
Channel(s) : 2 channel
Channel positions : Front: L R
Sampling rate : 48.0 KHz
Bit depth : 16 bits
Compression mode : Lossy
Stream size : 359 MiB (17%)
Alignment : Aligned on interleaves
Interleave, duration : 42 ms (1.00 video frame)
Interleave, preload duration : 512 ms

Plot:
After witnessing a mysterious train crash, a group of friends in the summer of 1979 begin noticing strange happenings going around in their small town, and begin to investigate into the creepy phenomenon.

SOURCES:

VIDEO: .............. Super.8.DvDScreener.Greatness 
AUDIO: .............. Super.8.DvDScreener.Greatness Thanks 

NOTES:

IMAGiNE bringing you another release..........
Super 8 DVDSCR.........

Ok heres our go at Super 8 DVDSCR.........
Source was very nice, thanks to GREATNESS for that Video had some interlace issues and such so we made a script to crop resize sharpen and deinterlace.......

hen we adjusted the brightness / contrast,filtered the RGB and yada yada Audio we converted from PCM to AC3 and remuxed to our encode 
Enjoy Folks!

Screens:
image
image
image
image
image

Related Torrents

torrent name size files age seed leech

Sharing Widget


Download torrent
2.07 GB
seeders:2
leechers:2
Super 8 2011 DVDSCR XViD AC3 - IMAGiNE

Trackers

tracker name Status checked seeders leechers downloads
http://announce.torrentsmd.com:6969/announce
outdated 22 Dec 2013 - - -
udp://tracker.publicbt.com:80/announce
outdated 22 Dec 2013 - - -
udp://tracker.openbittorrent.com:80/announce
outdated 22 Dec 2013 - - -
http://announce.torrentsmd.com:8080/announce.php
private 22 Dec 2013 - - -
http://exodus.desync.com/announce
outdated 18 Aug 2012 - - -
http://pow7.com/announce
outdated 09 May 2012 - - -
http://open.nyaatorrents.info:6544/announce
outdated 05 Aug 2011 - - -
http://cpleft.com:2710/announce
outdated 05 Aug 2011 - - -
http://tracker.openbittorrent.com/announce
outdated 05 Aug 2011 - - -
http://tracker.dm258.cn:6868/announce
outdated 05 Aug 2011 - - -
http://inferno.demonoid.me:3398/announce
outdated 05 Aug 2011 - - -
udp://tracker.1337x.org:80/announce
outdated 05 Aug 2011 - - -
http://tracker.publicbt.com/announce
deleted 11 Mar 2013 - - -
http://tracker.concen.cc/announce
error 05 Aug 2011 - - -
http://9.rarbg.com:2710/announce
private 05 Aug 2011 - - -
http://opentracker.umunu.com/announce
error 05 Aug 2011 - - -
http://tracker.dm258.cn:7070/announce
error 05 Aug 2011 - - -
http://byteshower.appspot.com/announce
pending 05 Aug 2011 0 0 0
ĀµTorrent compatible trackers list

Locations

name
KickassTorrents
ThePirateBay
ExtraTorrent
Torrent hash: DDBCFC9C17DF5AF0A2EBFB675B41BCF80273ADB5

All Comments

audio
9/10
video
9/10
please, leave only comments related to that torrent
or sign-in
0
Wolftatt25478 • 23 September 2011, 03:00
torrent downloaded
Show comment
audio: 9video: 9
0
capuano2162 • 01 September 2011, 14:09
torrent downloaded
Show comment
Great quality. This movie is a beautifull surprise.

User Opinions

Report a bug