Advertising (remove)

Taps (1981) Tom Cruise + Sean Penn (Optional subs Swe+Eng)

seeders: 0
leechers: 0
Added on Mar 11, 2009 in XXX
Downloaded 0 times.

Taps (1981) Tom Cruise + Sean Penn (Optional subs Swe+Eng) (Size: 715.5 MB)
  Info about this release.txt 4.64 KB
  Taps (1981) Tom Cruise + Sean Penn (Optional subs Swe+Eng)_Kuth.avi 696.03 MB
  AA-Sample
  ZZ-Optional subtitles
Advertising (remove)

Description

a.k.a.:
Taps the movie - Taps, the Movie
The Siege at Bunker Hill: T.A.P.S
Taps
Taps*
http://www.imdb.com/title/tt0083169/

Optional subtitles in separate idx/sub files: English, Swedish (Work in Windows Media Player etc.)

Great classic with a very young Tom Cruise as a trigger-happy military cadet (then only 19 years). Also one of the first films for Sean Penn (then 21) and Timothy Hutton (then 21).
Really thought-provoking plot: How will a group of young men, heavily armed and trained for battle, react if their own home base comes under attack?

My new ripping procedure now produces decent quality for such a long film compressed into just 700 MiB. I enclose a sample for ye weak in faith.

Widescreen DVDrip XviD 2-pass 704x368, great stereo sound AC3.
Burn tested, runs well in both my standalone DivX players.

MediaInfo analysis:
Format/Info : Audio Video Interleave
File size : 696 MiB
Duration : 2h 1mn
Overal bit rate : 803 Kbps

Video
Format : MPEG-4 Visual
Format profile : Streaming Video@L1
Format settings, BVOP : Yes
Format settings, QPel : No
Format settings, GMC : No warppoints
Format settings, Matrix : Default
Muxing mode : Packet Bitstream
Codec ID : XVID
Codec ID/Hint : XviD
Duration : 2h 1mn
Bit rate : 665 Kbps
Width : 704 pixels
Height : 368 pixels
Display aspect ratio : 1.913
Frame rate : 25.000 fps
Resolution : 8 bits
Colorimetry : 4:2:0
Scan type : Progressive
Bits/(Pixel*Frame) : 0.103
Stream size : 577 MiB
Writing library : XviD 1.2.0.dev47 (UTC 2006-11-01)

Audio
Format : MPEG Audio
Format version : Version 1
Format profile : Layer 3
Codec ID : 55
Codec ID/Hint : MP3
Duration : 2h 1mn
Bit rate mode : Constant
Bit rate : 128 Kbps
Minimum bit rate : 128 Kbps
Channel(s) : 2 channels
Sampling rate : 48.0 KHz
Resolution : 16 bits
Stream size : 111 MiB
Writing library : LAME3.97
Encoding settings : CBR

Source: PAL native (note that PAL/NTSC will give no problems for avi files.

Related Torrents

torrent name size files age seed leech

Sharing Widget


Download torrent
715.5 MB
seeders:0
leechers:0
Taps (1981) Tom Cruise + Sean Penn (Optional subs Swe+Eng)

Trackers

tracker name Status checked seeders leechers downloads
http://tracker.openbittorrent.com/announce
outdated 02 May 2010 - - -
ĀµTorrent compatible trackers list

Locations

name
ThePirateBay
TorrentReactor
Mininova
TorrentPortal
SumoTorrent
SumoTorrent
Torrentzap
Torrentzap
Torrent hash: fa3fc0d0e6228e205c2e13da0bf70625bb82c034

All Comments

audio
0/10
video
0/10
please, leave only comments related to that torrent
or sign-in
0
snowyriverfella595 • 03 November 2013, 21:03
torrent downloaded
Show comment
Good copy, good movie. A9/V9. Thanks u/l & seeders.
0
oldskewl81267 • 06 April 2011, 22:38
torrent downloaded
Show comment
great movie. haven't seen it in years. thanks!
0
borsky444 • 23 January 2011, 19:17
torrent downloaded
Show comment
good dl, thank you.

User Opinions

Report a bug