TED 2012 FULLCAM x264 - KiNGDOM

seeders: 10
leechers: 1
Added on Jul 12, 2012 by extremerules19.95K in Movies
Torrent verified by LRS23.25K, 2 years and 4 months ago. Downloaded 10 times.

Summary:
As the result of a childhood wish, John Bennett's teddy bear, Ted, came to life and has been by John's side ever since - a friendship that's tested when Lori, John's girlfriend of four years, wants more from their relationship.
Written by 5fingerdis47.88K
report summary
TED 2012 FULLCAM x264 - KiNGDOM (Size: 861.36 MB)
  Torrent downloaded from Demonoid.me.txt 46 bytes
  Readme.txt 56 bytes
  Torrent downloaded from AhaShare.com.txt 58 bytes
  TED 2012 FULLCAM x264 - KiNGDOM.mp4 850.23 MB
  sample.mp4 11.12 MB
  Kingdom RG.nfo 11.65 KB

Description

image

image
http://www.imdb.com/title/tt1637725/

image
As the result of a childhood wish, John Bennett's teddy bear, Ted, came to life and has been by John's side ever since - a friendship that's tested when Lori, John's girlfriend of four years, wants more from their relationship.

image


Format : MPEG-4
Format profile : Base Media
Codec ID : isom
File size : 850 MiB
Duration : 1h 39mn
Overall bit rate mode : Variable
Overall bit rate : 1 190 Kbps
Encoded date : UTC 2012-07-11 06:22:52
Tagged date : UTC 2012-07-11 06:22:52

Video
ID : 1
Format : AVC
Format/Info : Advanced Video Codec
Format profile : High@L4.1
Format settings, CABAC : Yes
Format settings, ReFrames : 3 frames
Codec ID : avc1
Codec ID/Info : Advanced Video Coding
Duration : 1h 39mn
Bit rate mode : Variable
Bit rate : 1 059 Kbps
Maximum bit rate : 40.0 Mbps
Width : 352 pixels
Height : 240 pixels
Display aspect ratio : 3:2
Frame rate mode : Constant
Frame rate : 29.970 fps
Standard : NTSC
Color space : YUV
Chroma subsampling : 4:2:0
Bit depth : 8 bits
Scan type : Progressive
Bits/(Pixel*Frame) : 0.418
Stream size : 757 MiB (89%)
Writing library : x264 core 125 r2200 999b753
Encoded date : UTC 2012-07-11 02:47:33
Tagged date : UTC 2012-07-11 06:24:08

Audio
ID : 2
Format : MPEG Audio
Format version : Version 1
Format profile : Layer 3
Mode : Joint stereo
Mode extension : MS Stereo
Codec ID : 6B
Duration : 1h 39mn
Bit rate mode : Constant
Bit rate : 128 Kbps
Maximum bit rate : 132 Kbps
Channel(s) : 2 channels
Sampling rate : 48.0 KHz
Compression mode : Lossy
Delay relative to video : -3s 337ms
Stream size : 91.4 MiB (11%)
Writing library : LAME3.99r
Encoding settings : -m j -V 4 -q 2 -lowpass 17 -b 128
Encoded date : UTC 2012-07-11 06:23:55
Tagged date : UTC 2012-07-11 06:24:08


Note:

First off thanks to a good m8 and this is the full cam...Messed about with the normal filters etc. The resolution is same as on the source. Now i know its small and could have attempted upscalin but ill leave it to the re-encodes. Also AR seems weird but its watchable and its the way it came from the go. Btw the audio is cam and its fully in sync also and its pretty good even for cam audio. One last thing the bottom has a black edge for the first part of the movie but it goes away and didnt wanna crop it as source was small anyhow. Enjoy smile.gif A sample has been included to test for quality and compatibility and don't fall for fakes, grab our encodes from the source or from our trusted accounts elsewhere




image

image
image
image
image
image
image
image

Related Torrents

torrent name size files age seed leech

Sharing Widget


Download torrent
861.36 MB
seeders:10
leechers:1
TED 2012 FULLCAM x264 - KiNGDOM

Trackers

tracker name Status checked seeders leechers downloads
udp://tracker.openbittorrent.com:80/announce
outdated 29 Aug 2014 - - -
udp://tracker.publicbt.com:80/announce
outdated 29 Aug 2014 - - -
udp://tracker.istole.it:80/announce
outdated 29 Aug 2014 - - -
http://tracker.istole.it/announce
outdated 16 Oct 2012 - - -
udp://tracker.1337x.org:80/announce
outdated 16 Oct 2012 - - -
http://cpleft.com:2710/announce
outdated 16 Oct 2012 - - -
http://exodus.desync.com:6969/announce
blocked 16 Oct 2012 - - -
http://fr33dom.h33t.com:3310/announce
deleted 20 May 2013 - - -
http://tracker.publicbt.com/announce
deleted 11 Mar 2013 - - -
udp://fr33domtracker.h33t.com:3310/announce
deleted 16 Oct 2012 - - -
µTorrent compatible trackers list

Locations

name
KickassTorrents
ThePirateBay
Torrent hash: 6E2B0427B202217A6E324B6D57CAABC365F28C72

Top Comments

2
anonymous • 04 Aug 2012, 15:48
audio: 7video: 6
the-torrent-watchers © our team has voted the audio as : 7 , the sound dose have a bit of an echo but is clear to hear and one of the best audio's out there for this movie . our team have voted this video as : 6 . the video is clear but a little bit blury , wich is expected from a cam-recorded movie . the position is not perfect but throughout the movie there is no movment of the camera wich is brilliant . team manager repot : thankyou for the upload , i can honestly say i have not found a better cam-recorded torrent for this movie . thankyou . the-torrent-watchers ©

All Comments

audio
6/10
video
6/10
please, leave only comments related to that torrent
or sign-in
0
anonymous • 09 June 2014, 19:47 Show comment
audio: 6video: 7
cool
0
AstralWarrior621 • 25 October 2012, 19:58
torrent downloaded
Show comment
audio: 10video: 10
Brilliant movie.
Best Quality
your a brilliant source.
Fast download.
Excellent.
Thanks.
0
anonymous • 23 October 2012, 21:02 Show comment
thanks not bad at all
0
anonymous • 14 October 2012, 16:16 Show comment
audio: 6video: 6
0
Eraser31725 • 13 October 2012, 20:08 Show comment
thanks but I will wait for a dvd ripe comes to torrents hope its very soon I haven't watched it yet I just dont like movie done with cams at all
0
andywife5 • 26 September 2012, 20:02
torrent downloaded
Show comment
brillent very clear
0
anonymous • 23 September 2012, 15:52 Show comment
AHAHAHAHAHAHAH
0
anonymous • 23 September 2012, 15:52 Show comment
AHAHAHAHAHAHAH
0
anonymous • 23 September 2012, 15:52 Show comment
AHAHAHAHAHAHAH
Show More All

User Opinions

royalcanadian5119, JackAtKat4335, m.T1781, Punisher271268, denis1304529, loord_mytu162, XxstarlessxX116, missy8392, stg68, megster19683 ... And 64 more
SacredGround3295, dreallday21263, chatty461001, martinc43566, zatwoine381, LDiablo260, Peely123209, lhoki147, chris_hill34, daveyboy19847 ... And 12 more
Report a bug