TED 2012 TS XVID - T.R.M

seeders: 281
leechers: 39
Added on Jul 15, 2012 by utterjoy4950 in Movies
Torrent verified. Downloaded 1,302 times.

Summary:
As the result of a childhood wish, John Bennett's teddy bear, Ted, came to life and has been by John's side ever since - a friendship that's tested when Lori, John's girlfriend of four years, wants more from their relationship.
Written by 5fingerdis48.43K
report summary
TED 2012 TS XVID - T.R.M (Size: 905.63 MB)
  sample.avi 8.55 MB
  sample.sfv 5.24 KB
  TED - T.R.M.rar 14.31 MB
  TED - T.R.M.rar 14.31 MB
  TED - T.R.M.rar 14.31 MB
  TED - T.R.M.rar 14.31 MB
  TED - T.R.M.rar 14.31 MB
  TED - T.R.M.rar 14.31 MB
  TED - T.R.M.rar 14.31 MB
  TED - T.R.M.rar 14.31 MB
  TED - T.R.M.rar 14.31 MB
  TED - T.R.M.rar 14.31 MB
  TED - T.R.M.rar 14.31 MB
  TED - T.R.M.rar 14.31 MB
  TED - T.R.M.rar 14.31 MB
  TED - T.R.M.rar 14.31 MB
  TED - T.R.M.rar 14.31 MB
  TED - T.R.M.rar 14.31 MB
  TED - T.R.M.rar 14.31 MB
  TED - T.R.M.rar 14.31 MB
  TED - T.R.M.rar 14.31 MB
  TED - T.R.M.rar 14.31 MB
  TED - T.R.M.rar 14.31 MB
  TED - T.R.M.rar 14.31 MB
  TED - T.R.M.rar 14.31 MB
  TED - T.R.M.rar 14.31 MB
  TED - T.R.M.rar 14.31 MB
  TED - T.R.M.rar 14.31 MB
  TED - T.R.M.rar 14.31 MB
  TED - T.R.M.rar 14.31 MB
  And 35 files more

Description

| .--------------. || .--------------. || .--------------. || .--------------. || .--------------. |
| | _________ | || | | || | _______ | || | | || | ____ ____ | |
| | | _ _ | | || | | || | |_ __ \ | || | | || ||_ \ / _|| |
| | |_/ | | \_| | || | | || | | |__) | | || | | || | | \/ | | |
| | | | | || | | || | | __ / | || | | || | | |\ /| | | |
| | _| |_ | || | _ | || | _| | \ \_ | || | _ | || | _| |_\/_| |_ | |
| | |_____| | || | (_) | || | |____| |___| | || | (_) | || ||_____||_____|| |
| | | || | | || | | || | | || | | |
| '--------------' || '--------------' || '--------------' || '--------------' || '--------------' |
'----------------' '----------------' '----------------' '----------------' '----------------'

TITLE:
TED 2012 TS XVID - T.R.M

IMDB:
http://www.imdb.com/title/tt1637725/

SOURCES:
AUDIO - CM8
VIDEO - Kingdom

STATS:

Video
ID: 0
Format: MPEG-4 Visual
Format profile: Advanced Simple@L5
Format settings, BVOP: 2
Format settings, QPel: No
Format settings, GMC: No warppoints
Format settings, Matrix: Default (MPEG)
Muxing mode: Packed bitstream
Codec ID: XVID
Codec ID/Hint: XviD
Duration: 1h 39mn
Bit rate: 1 116 Kbps
Width: 608 pixels
Height: 352 pixels
Display aspect ratio: 16:9
Frame rate: 29.970 fps
Color space: YUV
Chroma subsampling: 4:2:0
Bit depth: 8 bits
Scan type: Progressive
Compression mode: Lossy
Bits/(Pixel*Frame): 0.174
Stream size: 797 MiB (89%)
Writing library: XviD 64

Audio
ID: 1
Format: MPEG Audio
Format version: Version 1
Format profile: Layer 3
Mode: Joint stereo
Mode extension: MS Stereo
Codec ID: 55
Codec ID/Hint: MP3
Duration: 1h 39mn
Bit rate mode: Constant
Bit rate: 128 Kbps
Channel(s): 2 channels
Sampling rate: 44.1 KHz
Compression mode: Lossy
Stream size: 91.4 MiB (10%)
Alignment: Split accross interleaves
Interleave, duration: 33 ms (1.00 video frame)
Interleave, preload duration: 500 ms

WORKDONE:

Ok thought we'd give one a whirl.....so took the kindgom release and tried too upscale it the best we could
without going too far
To get it this high we had too use smoothers to keep the noise at bay.We also used the perspective filter to pull the
right handside out aswell as levelling up the video.Now video not totally straight,because to do so we would have to had
cropped a fair bit more and didn't want to do that
After that we need to fix the AR and then filter the brightness,chroma etc.....before finally adding some sharpness back
Audio we used cm8s line and we made a offset of -16600ms to line it up with our encode then we save the file and then cleaned
and convert the ac3 track too mp3 and remuxed

Even if you don't grab this release ...please just grab the sample ...so fooking funny lmfao

image

image

Sharing Widget


Download torrent
905.63 MB
seeders:281
leechers:39
TED 2012 TS XVID - T.R.M

Trackers

tracker name Status checked seeders leechers downloads
udp://tracker.istole.it:80/announce
outdated 16 Jul 2012 - - -
udp://tracker.1337x.org:80/announce
outdated 16 Jul 2012 - - -
udp://tracker.publicbt.com:80/announce
outdated 16 Jul 2012 - - -
udp://tracker.openbittorrent.com:80/announce
outdated 16 Jul 2012 - - -
http://tracker.istole.it/announce
outdated 16 Jul 2012 - - -
http://exodus.desync.com:6969/announce
blocked 22 Aug 2012 - - -
udp://fr33domtracker.h33t.com:3310/announce
deleted 16 Jul 2012 - - -
http://tracker.publicbt.com/announce
deleted 16 Jul 2012 - - -
http://torrentday.ru:6969/4daba33a2274db432145dd8667413b16/announce
pending 16 Jul 2012 281 39 1302
http://torrentday.me:2710/4daba33a2274db432145dd8667413b16/announce
pending 16 Jul 2012 281 39 1302
ĀµTorrent compatible trackers list

Locations

name
KickassTorrents
Torrent hash: AB065480EE5F320F8A462C4A59E8F51D89D8D967

All Comments

audio
0/10
video
0/10
please, leave only comments related to that torrent
or sign-in

User Opinions

Report a bug