The Avengers 2012 Cam Cropped XviD Feel-Free

seeders: 354
leechers: 14
Added on Apr 28, 2012 by feel-free20.13K in Movies
Torrent verified. Downloaded 131,538 times.

Summary:
Earth's mightiest heroes must come together and learn to fight as a team if they are to stop the mischievous Loki and his alien army from enslaving humanity.
Written by Dr.YeTii277.62K
report summary
The Avengers 2012 Cam Cropped XviD Feel-Free (Size: 1.21 GB)
  The Avengers 2012 Cam Cropped XviD Feel-Free.avi 1.21 GB
  The Avengers 2012 Cam Cropped XviD Feel-Free.nfo 3.33 KB
  The Avengers 2012.jpg 27.42 KB
  Torrent downloaded from extratorrent.com.txt 171 bytes
  vlcsnap-2012-04-28-11h32m26s30.png 135.58 KB
  vlcsnap-2012-04-28-11h32m48s4.png 166.72 KB
  vlcsnap-2012-04-28-11h32m57s87.png 178.93 KB
  vlcsnap-2012-04-28-11h33m59s200.png 204.11 KB
  vlcsnap-2012-04-28-11h34m12s78.png 224.38 KB
  vlcsnap-2012-04-28-11h34m53s221.png 233.11 KB

Description

image
image



Genre:Action | Adventure | Sci-Fi
Language:English
IMDb:http://www.imdb.com/title/tt0848228/
Source:26K Thanks!
Encoder:Tony

Format : AVI
Format/Info : Audio Video Interleave
File size : 1.21 GiB
Duration : 2h 11mn
Overall bit rate : 1 314 Kbps

Video
ID : 0
Format : MPEG-4 Visual
Format profile : Advanced Simple@L5
Format settings, BVOP : 1
Format settings, QPel : No
Format settings, GMC : No warppoints
Format settings, Matrix : Default (H.263)
Codec ID : XVID
Codec ID/Hint : XviD
Duration : 2h 11mn
Bit rate : 1 142 Kbps
Width : 624 pixels
Height : 232 pixels
Display aspect ratio : 2.690
Frame rate : 30.000 fps
Color space : YUV
Chroma subsampling : 4:2:0
Bit depth : 8 bits
Scan type : Progressive
Compression mode : Lossy
Bits/(Pixel*Frame) : 0.263
Stream size : 1.05 GiB (87%)
Writing library : XviD 1.2.1 (UTC 2008-12-04)

Audio
ID : 1
Format : AC-3
Format/Info : Audio Coding 3
Mode extension : CM (complete main)
Codec ID : 2000
Duration : 2h 11mn
Bit rate mode : Constant
Bit rate : 160 Kbps
Channel(s) : 2 channels
Channel positions : Front: L R
Sampling rate : 48.0 KHz
Bit depth : 16 bits
Compression mode : Lossy
Stream size : 151 MiB (12%)
Alignment : Aligned on interleaves
Interleave, duration : 33 ms (1.00 video frame)
Interleave, preload duration : 512 ms


Plot:
Nick Fury of S.H.I.E.L.D. brings together a team of super humans to form The Avengers to help save the Earth from Loki and his army.

TRAILER:
[video=http://www.youtube.com/watch?v=tY9DnBNJFTI]

image
image
image
image
image
image



Greets:
CRYS,INSPiRAL,IMAGINE,LKRG,ADTRG,FXG,3Li,FLAWL3SS,TA,iLLUSiON,EMBER,HOPE,GooN,BBnRG,NOGRP,ETRG,BHRG,iLLUMiNATi,MiSTERE.ViSiON,DTRG SAFCuk009,LU,TheFalcon007,MYSTiC,PrisM,Noir,WBZ,LAP,Rx,Kingdom,SAFCuk009+Fabreezy,HDLiTE,TWiZTED,ETRG.ELEKTRI4KA,MAGNAT,CM8
And to all the other p2p grps past and present

Make sure its a real Feel-Free release @ http://extratorrent.com

Thanks to all who promotes release Feel-Free !!!

Related Torrents

torrent name size files age seed leech

Sharing Widget


Download torrent
1.21 GB
seeders:354
leechers:14
The Avengers 2012 Cam Cropped XviD Feel-Free

Trackers

tracker name Status checked seeders leechers downloads
http://tracker.istole.it/announce
outdated 02 Sep 2012 - - -
http://pow7.com/announce
outdated 02 Sep 2012 - - -
udp://tracker.1337x.org:80/announce
outdated 02 Sep 2012 - - -
udp://tracker.publicbt.com:80/announce
outdated 02 Sep 2012 - - -
udp://tracker.istole.it:80/announce
outdated 02 Sep 2012 - - -
udp://tracker.openbittorrent.com:80/announce
outdated 02 Sep 2012 - - -
http://exodus.desync.com:6969/announce
blocked 02 Sep 2012 - - -
http://tracker.publicbt.com/announce
deleted 11 Mar 2013 - - -
udp://fr33domtracker.h33t.com:3310/announce
deleted 02 Sep 2012 - - -
http://tracker.novalayer.org:6969/announce
pending 02 Sep 2012 0 0 0
ĀµTorrent compatible trackers list

Locations

name
KickassTorrents
Torrent hash: 9359992FCCE2CF8826B75E549DC78F53C2B874EB

Top Comments

13
anonymous • 28 Apr 2012, 14:45
i think you are suppose to comment on the quality not chit chat, no one cares...whats the damn quality??

All Comments

audio
6/10
video
6/10
please, leave only comments related to that torrent
or sign-in
0
Marcello4040 • 11 November 2012, 02:33
torrent downloaded
Show comment
Not So Good I Can Hear A Man Who Has A Cold........
0
bullakos25 • 17 September 2012, 12:29
torrent downloaded
Show comment
its in chinese
0
420weedman44.03K • 18 August 2012, 14:52
torrent downloaded
Show comment
thx
0
anonymous • 17 August 2012, 17:18 Show comment
audio: 10video: 10
bad
0
ekoman245534 • 31 July 2012, 17:41
torrent downloaded
Show comment
thanks
Show More All

User Opinions

Report a bug