The Avengers 2012 HD TS READNFO REPACK XviD-26k

seeders: 5
leechers: 0
Added on May 22, 2012 by hail_alpha66.5K in Movies
Torrent verified. Downloaded 10 times.

Summary:
Earth's mightiest heroes must come together and learn to fight as a team if they are to stop the mischievous Loki and his alien army from enslaving humanity.
Written by Dr.YeTii282.54K
report summary
The Avengers 2012 HD TS READNFO REPACK XviD-26k (Size: 1.47 GB)
  1.png 275.35 KB
  2.png 141.38 KB
  26k nfo.nfo 4.49 KB
  3.png 164.46 KB
  4.png 293.59 KB
  HDSceneRG.txt 115 bytes
  The Avengers 2012 HD TS READNFO REPACK XviD-26k.avi 1.47 GB
  The Avengers 2012 HD TS READNFO REPACK XviD-26k.jpg 125.75 KB
  Torrent downloaded from Demonoid.me.txt 46 bytes
  Torrent downloaded from rarbg.com.txt.txt 0 bytes
  YouTube Latest Releases And Archive.txt 86 bytes
  jetstreamnews.com.txt 376 bytes
  Sceneunderground.org.txt 77 bytes

Description

image


The Avengers 2012 HD TS READNFO REPACK XviD-26k

http://www.imdb.com/title/tt0848228/

Plot:
Nick Fury of S.H.I.E.L.D. brings together a team of super humans to form The Avengers 
to help save the Earth from Loki and his army.


 
Sources - VIDEO: Chinese HDCAM VOBs/a friend for 2nd extra scene ....Thanks :P
 AUDIO: ADTRG/ a friends for 2nd extra scene ...Thanks :P
 SUBS: YES - for all non englush speaking part..... me and a frined... Thanks :P

Format : AVI
Format/Info : Audio Video Interleave
File size : 1.47 GiB
Duration : 2h 17mn
Overall bit rate : 1 537 Kbps
Writing library : VirtualDub build 32839/release

Video
ID : 0
Format : MPEG-4 Visual
Format profile : Advanced Simple@L5
Format settings, BVOP : 2
Format settings, QPel : No
Format settings, GMC : No warppoints
Format settings, Matrix : Default (H.263)
Muxing mode : Packed bitstream
Codec ID : XVID
Codec ID/Hint : XviD
Duration : 2h 17mn
Bit rate : 1 398 Kbps
Width : 720 pixels
Height : 320 pixels
Display aspect ratio : 2.25:1
Frame rate : 29.970 fps
Color space : YUV
Chroma subsampling : 4:2:0
Bit depth : 8 bits
Scan type : Progressive
Compression mode : Lossy
Bits/(Pixel*Frame) : 0.202
Stream size : 1.34 GiB (91%)
Writing library : XviD 1.2.1 (UTC 2008-12-04)

Audio
ID : 1
Format : MPEG Audio
Format version : Version 1
Format profile : Layer 3
Mode : Joint stereo
Codec ID : 55
Codec ID/Hint : MP3
Duration : 2h 17mn
Bit rate mode : Constant
Bit rate : 128 Kbps
Channel(s) : 2 channels
Sampling rate : 44.1 KHz
Compression mode : Lossy
Delay relative to video : 100ms
Stream size : 125 MiB (8%)
Alignment : Split accross interleaves
Interleave, duration : 33 ms (1.00 video frame)
Interleave, preload duration : 500 ms
Writing library : LAME3.98

Notes -

REPACK- fixed the oos problem.. sry bout that was in sync for me when i watched it but started
getting negative feedback on it so went to dif puter and it was oos.. so i made 14 cuts to fix 
the problem.... enjoy

K well for the READNFO.. VOBS were very nice.. made a script to crop, resize, denoise..
then dropped that into VDUB where the real work was... Denoised sum more, no color adjustment
at all was really needed just altered brightness, contrast,intensity, and a few other 
minor things... Then HARD cODED all English subs.. all 3 different languages.. they are on time
then the fun part was the 2nd extra scene it does have CAM audio but oh well there is no talking
on screen anyway.. then just synced up ADTRG's LiNE to my encode and appened it all together...
enjoy a FULL PROPER RELEASE........


Enjoy!!



Screenshots:
image
image
image
image
image

Greetz:
Xtreme Encode|FYA|ILLUMANTI|CM8|RX|VISION|HDSCENE|xTriLL|DTRG|CRYS|REMIXHD|BIDA|RX|REFILL|INSPiRAL|SIC|
|HOPE|Anonymous|GooN|NOIR|Blackjesus|Gabroo Punjab Deh|

To all the people who have helped me you know who you are

Anything to offer email us @: 26k@hushmail.me

Related Torrents

torrent name size files age seed leech

Sharing Widget


Download torrent
1.47 GB
seeders:5
leechers:0
The Avengers 2012 HD TS READNFO REPACK XviD-26k

Trackers

tracker name Status checked seeders leechers downloads
udp://tracker.openbittorrent.com:80/announce
outdated 28 May 2014 - - -
udp://tracker.publicbt.com:80/announce
outdated 28 May 2014 - - -
udp://tracker.istole.it:80/announce
outdated 28 May 2014 - - -
http://cpleft.com:2710/announce
outdated 29 Jul 2012 - - -
udp://tracker.1337x.org:80/announce
outdated 29 Jul 2012 - - -
http://10.rarbg.com/announce
private 29 Jul 2012 - - -
http://tracker.istole.it/announce
outdated 29 Jul 2012 - - -
http://tracker.publicbt.com/announce
deleted 11 Mar 2013 - - -
udp://fr33domtracker.h33t.com:3310/announce
deleted 29 Jul 2012 - - -
http://tracker.novalayer.org:6969/announce
pending 29 Jul 2012 0 0 0
ĀµTorrent compatible trackers list

Locations

name
KickassTorrents
Torrent hash: 7AD35A4F8F87E00E2BB79AE2C495A4D70DFDAAB4

All Comments

audio
7/10
video
7/10
please, leave only comments related to that torrent
or sign-in
0
anonymous • 30 September 2012, 13:22 Show comment
audio: 7video: 6
0
chrissie1237 • 16 August 2012, 22:56
torrent downloaded
Show comment
audio: 7video: 7
good copy thanks uploader
0
anonymous • 02 August 2012, 17:06 Show comment
audio: 8video: 7
0
njdevils99382 • 26 July 2012, 03:45
torrent downloaded
Show comment
audio: 6video: 6
0
fresher19881806 • 25 July 2012, 18:23
torrent downloaded
Show comment
it was good
0
widnesviking580 • 25 July 2012, 03:13
torrent downloaded
Show comment
thx
0
raamc455802804 • 17 July 2012, 13:07
torrent downloaded
Show comment
audio: 8video: 8
well done uploader thanks for the time spent. very good quality.
0
midbrojoh144 • 15 July 2012, 10:23
torrent downloaded
Show comment
audio: 8video: 9
excelent thanx very much
0
fourfive843 • 06 July 2012, 23:32
torrent downloaded
Show comment
audio: 8video: 7
very watchable thks
Show More All

User Opinions

THX13286784, Karma_Kills4440, JackAtKat4428, noctophobia3538, linerider692257, clay011176, adivr6637, sil112501, do-nutz312, lurch7278 ... And 40 more
v..j1774, canada25439, topu00007290, danial23131, DSNS85, shahzaibiqbal35, blueaisa2
Report a bug