The Croods 2013 TS x264 AAC-OFFLiNE

seeders: 116
leechers: 31
Added on Mar 28, 2013 in Movies
Torrent verified. Downloaded 112 times.

Summary:
After their cave is destroyed, a caveman family must trek through an unfamiliar fantastical world with the help of an inventive boy.
Written by DeadShot10141.08K
report summary
The Croods 2013 TS x264 AAC-OFFLiNE (Size: 734.33 MB)
  Croods.nfo 3.55 KB
  sample.mp4 8.46 MB
  The Croods 2013 TS x264 AAC-OFFLiNE.mp4 725.86 MB
  www.SceneTime.com.txt 55 bytes
  www.speed.cd read me.txt 55 bytes

Description

-

http://www.Speed. Cd the fast and The Hottest Private Tracker on the net
http://www.Speed. Cd

Please Seed back to make the speed Faster!!
............ NFO .............
-

http://www.Speed. Cdimage

Sources: Video - CAM.XviD.HUN-BEOWULF ... Audio - SKA/MiNiSTRY - Thanks Both

^^^ Pretty nice source, all i did was resize to correct the AR, adjusted hue, sat, bright, contrast and sharpen.

http://www.imdb.com/title/tt0481499/

The world's very first prehistoric family goes on a road trip to an uncharted and fantastical world.

General
Complete name : The Croods 2013 TS x264 AAC-OFFLiNE.mp4
Format : MPEG-4
Format profile : Base Media
Codec ID : isom
File size : 726 MiB
Duration : 1h 29mn
Overall bit rate mode : Variable
Overall bit rate : 1 134 Kbps
Encoded date : UTC 2013-03-28 03:54:09
Tagged date : UTC 2013-03-28 03:54:09

Video
ID : 1
Format : AVC
Format/Info : Advanced Video Codec
Format profile : High@L4.1
Format settings, CABAC : Yes
Format settings, ReFrames : 3 frames
Codec ID : avc1
Codec ID/Info : Advanced Video Coding
Duration : 1h 29mn
Bit rate mode : Variable
Bit rate : 995 Kbps
Maximum bit rate : 40.0 Mbps
Width : 720 pixels
Height : 252 pixels
Display aspect ratio : 2.857
Frame rate mode : Constant
Frame rate : 25.000 fps
Color space : YUV
Chroma subsampling : 4:2:0
Bit depth : 8 bits
Scan type : Progressive
Bits/(Pixel*Frame) : 0.219
Stream size : 636 MiB (88%)
Writing library : x264 core 130 r2273 b3065e6

Audio
ID : 2
Format : AAC
Format/Info : Advanced Audio Codec
Format profile : LC
Codec ID : 40
Duration : 1h 29mn
Bit rate mode : Variable
Bit rate : 136 Kbps
Maximum bit rate : 157 Kbps
Channel(s) : 2 channels
Channel positions : Front: L R
Sampling rate : 48.0 KHz
Compression mode : Lossy
Stream size : 86.8 MiB (12%)
Language : English
Encoded date : UTC 2013-03-28 03:47:20
Tagged date : UTC 2013-03-28 03:55:11



image
image
image
image
image
image
image
image
image

Greets: To Our Friends

Related Torrents

torrent name size files age seed leech

Sharing Widget


Download torrent
734.33 MB
seeders:116
leechers:31
The Croods 2013 TS x264 AAC-OFFLiNE

Trackers

tracker name Status checked seeders leechers downloads
udp://tracker.istole.it:80/announce
outdated 01 May 2013 - - -
udp://tracker.publicbt.com:80/announce
outdated 01 May 2013 - - -
udp://tracker.openbittorrent.com:80/announce
outdated 01 May 2013 - - -
udp://fr33domtracker.h33t.com:3310/announce
deleted 01 May 2013 - - -
ĀµTorrent compatible trackers list

Locations

name
ThePirateBay
Torrent hash: 8FCBE5F3DDCCA968FA2EEBF83D201CB4656A260A

All Comments

audio
5/10
video
6/10
please, leave only comments related to that torrent
or sign-in
0
Jerry.Shadoe10.53K • 10 April 2013, 07:59
torrent downloaded
Show comment
audio: 6video: 6
legit, thanx2uploader&seederz:)
0
Rockster0015000 • 29 March 2013, 01:08
torrent downloaded
Show comment
audio: 5video: 6

User Opinions

Adwarb11.33K, Jerry.Shadoe10.53K, Rockster0015000, MigetMaster3025, a1kop990432, dev929152
Report a bug