The Deep Blue Sea 2011 SCR AC3 XViD - INSPiRAL

seeders: 1
leechers: 21
Added on Feb 3, 2012 in Movies
Torrent verified. Downloaded once.

Summary:
The wife of a British Judge is caught in a self-destructive love affair with a Royal Air Force pilot.
Written by 5fingerdis48.44K
report summary
The Deep Blue Sea 2011 SCR AC3 XViD - INSPiRAL (Size: 1.69 GB)
  Read this before playing this Video.txt 222 bytes
  SAMPLE - INSPiRAL.avi 26.21 MB
  SAMPLE - INSPiRAL.sfv 7.87 KB
  TDBS.r00 14.31 MB
  TDBS.r01 14.31 MB
  TDBS.r02 14.31 MB
  TDBS.r03 14.31 MB
  TDBS.r04 14.31 MB
  TDBS.r05 14.31 MB
  TDBS.r06 14.31 MB
  TDBS.r07 14.31 MB
  TDBS.r08 14.31 MB
  TDBS.r09 14.31 MB
  TDBS.r10 14.31 MB
  TDBS.r11 14.31 MB
  TDBS.r12 14.31 MB
  TDBS.r13 14.31 MB
  TDBS.r14 14.31 MB
  TDBS.r15 14.31 MB
  TDBS.r16 14.31 MB
  TDBS.r17 14.31 MB
  TDBS.r18 14.31 MB
  TDBS.r19 14.31 MB
  TDBS.r20 14.31 MB
  TDBS.r21 14.31 MB
  TDBS.r22 14.31 MB
  TDBS.r23 14.31 MB
  TDBS.r24 14.31 MB
  TDBS.r25 14.31 MB
  TDBS.r26 14.31 MB
  And 93 files more

Description

.
..............................Site Info...........................

- http://www.scenetime.com *_*

SceneTime is going to Close sign up on march/1, hurry up! get in before the doors are closed.

We care to share . Join us on http://www.scenetime.com

Be the first to get new release at http://www.scenetime.com

Seed back for speed


...................................NFO:.................................................image


TITLE:

The Deep Blue Sea 2011 SCR AC3 XViD - INSPiRAL

IMDB:

http://www.imdb.com/title/tt1700844/


SOURCES:

VIDEO - MPEG FILES THANKS
AUDIO - MPEG FILES THANKS
SUBS - None Add

STATS:

Video
ID : 0
Format : MPEG-4 Visual
Format profile : Advanced Simple@L5
Format settings, BVOP : 2
Format settings, QPel : No
Format settings, GMC : No warppoints
Format settings, Matrix : Default (MPEG)
Muxing mode : Packed bitstream
Codec ID : XVID
Codec ID/Hint : XviD
Duration : 1h 34mn
Bit rate : 2 381 Kbps
Width : 720 pixels
Height : 384 pixels
Display aspect ratio : 1.875
Frame rate : 25.000 fps
Color space : YUV
Chroma subsampling : 4:2:0
Bit depth : 8 bits
Scan type : Progressive
Compression mode : Lossy
Bits/(Pixel*Frame) : 0.344
Stream size : 1.57 GiB (95%)
Writing library : XviD 64

Audio
ID : 1
Format : AC-3
Format/Info : Audio Coding 3
Mode extension : CM (complete main)
Codec ID : 2000
Duration : 1h 34mn
Bit rate mode : Constant
Bit rate : 128 Kbps
Channel(s) : 2 channels
Channel positions : Front: L R
Sampling rate : 48.0 KHz
Bit depth : 16 bits
Compression mode : Lossy
Stream size : 86.4 MiB (5%)
Alignment : Aligned on interleaves
Interleave, duration : 40 ms (1.00 video frame)
Interleave, preload duration : 512 ms



NOTES:

First off thanks to some special friends for the source files ;-)
Ok the source itself ....for what it is,its not the best,but better than the shitty cams thats been pumping out the last few weeks.
Audio is nice but no 5.1 track.
Workdone ....increased the contrast as it was quite washed out and seem to have a haze over it.Also changed the RGB EQ and increased
the chroma a touch.Added some sharpeness,but also used a noise remover first ...
Overall half decent copy both video and audio .....and better than a cam/TS so ...

Oh as text watermarks on it that come and go throughout.


SCREENS:

image
image
image
image
image


GREETZ:

Past,Present and Future

image

Related Torrents

torrent name size files age seed leech

Sharing Widget


Download torrent
1.69 GB
seeders:1
leechers:21
The Deep Blue Sea 2011 SCR AC3 XViD - INSPiRAL

Trackers

tracker name Status checked seeders leechers downloads
http://tracker.openbittorrent.com/announce
outdated 04 Feb 2012 - - -
udp://tracker.openbittorrent.com:80/announce
outdated 04 Feb 2012 - - -
udp://tracker.publicbt.com:80/announce
outdated 04 Feb 2012 - - -
http://tracker.publicbt.com/announce
deleted 04 Feb 2012 - - -
µTorrent compatible trackers list

Locations

name
ThePirateBay
KickassTorrents
Limetorrents
Torrent hash: 97B1A0A911917B26E285D75D08E483CE4E62335B

All Comments

audio
0/10
video
0/10
please, leave only comments related to that torrent
or sign-in
Report a bug