The Fast And The Furious 2001[DvdRip]Dual Audio[Eng-Hindi]

seeders: 1
leechers: 1
Added on May 7, 2010 in Movies
Torrent verified. Downloaded 10 times.

Summary:
Los Angeles police officer Brian O'Connor must decide where his loyalties really lie when he becomes enamored with the street racing world he has been sent undercover to destroy.
Written by Dr.YeTii273.52K
report summary
Available in versions: 1080p720pBlu-RayHDRiPDVDDVDRipx264
The Fast And The Furious 2001[DvdRip]Dual Audio[Eng-Hindi] (Size: 887.45 MB)
  The.Fast.And.The.Furious.2001[DvdRip]Dual.Audio[Eng-Hindi].mkv 887.45 MB

Description

HD DESI ROCKERS RELEASES



INFO:

Title..................: The Fast and The Furious 2001
Genre..................: Action | Adventure | Racing
Directer...............: Rob Cohen
Run time...............: 1h 42mn 28sec
size ..................: 887 MB
Languages..............: English.Hindi

___________________________________________________________________________

Video

Format : MKV
Duration : 1h 42mn
Display aspect ratio : 16:9
Resolution : 672*272
Stream size : 674 MiB
_______________________________________________________________________________


Audio #1 :English
ID : 1
Format : AC-3
Duration : 1h 42mn
Bit rate mode : Constant
Bit rate : 160 Kbps
Channel(s) : 6 channels
Channel positions : Front: L C R, Side: L R, LFE
Sampling rate : 48.0 KHz
Stream size : 117 MiB

____________________________________________________________________________


Audio #2 :Hindi
ID : 2
Format : MPEG 1 Layer 3
Duration : 1h 42mn
Bit rate mode : Constant
Bit rate : 128 Kbps
Channel(s) : 2 channels
Channel positions : Front: L R
Sampling rate : 44100 Hz
Stream size : 93.8 MiB
__________________________________________________________________________



Seeding at 2:00 AM ISt - 8:00 AM ISt
Please wait during seeding
Plz seed after download
Thankyou...


http://img64.imageshack.us/img64/7972/16175637.jpg
http://img709.imageshack.us/img709/9153/82349207.jpg
http://img11.imageshack.us/img11/3228/71133627.jpg
http://img685.imageshack.us/img685/4295/59336789.jpg
http://img101.imageshack.us/img101/7739/72683183.jpg
http://img140.imageshack.us/img140/9348/39494961.jpg
http://img682.imageshack.us/img682/4558/93296622.jpg

Sharing Widget


Download torrent
887.45 MB
seeders:1
leechers:1
The Fast And The Furious 2001[DvdRip]Dual Audio[Eng-Hindi]

Trackers

tracker name Status checked seeders leechers downloads
udp://tracker.openbittorrent.com:80/announce
outdated 16 Oct 2014 - - -
http://pow7.com/announce
outdated 16 Oct 2014 - - -
udp://tracker.publicbt.com:80/announce
outdated 16 Oct 2014 - - -
http://tracker.ex.ua/announce
outdated 14 Aug 2014 - - -
udp://tracker.istole.it:80/announce
outdated 14 Aug 2014 - - -
http://tracker.torrentbay.to:6969/announce
outdated 16 Sep 2013 - - -
http://10.rarbg.com/announce
private 16 Sep 2013 - - -
http://photodiode.mine.nu/announce
outdated 16 Sep 2013 - - -
http://genesis.1337x.org:1337/announce
outdated 16 Sep 2013 - - -
http://11.rarbg.com/announce
private 16 Sep 2013 - - -
http://tracker.openbittorrent.com/announce
outdated 16 Sep 2013 - - -
http://tracker.istole.it/announce
outdated 16 Sep 2013 - - -
http://nemesis.1337x.org/announce
outdated 16 Sep 2013 - - -
http://tracker.publicbt.com/announce
deleted 16 Sep 2013 - - -
http://tracker.bitreactor.to:2710/announce
private 01 Jun 2010 - - -
http://9.rarbg.com:2710/announce
private 01 Jun 2010 - - -
ĀµTorrent compatible trackers list

Locations

name
1337x
Torrent hash: 804758b6d554405bc9f4d55b90c6a819c2ff066d

All Comments

audio
8/10
video
8/10
please, leave only comments related to that torrent
or sign-in
0
AnduQ283 • 29 July 2014, 10:21
torrent downloaded
Show comment
audio: 8video: 8
Because will never become old.

Ride or Die! biggrin

Last edited by AnduQ, 3 months ago

0
RdxCobra91 • 16 May 2013, 17:16
torrent downloaded
Show comment
audio: 8video: 9
very nice movie
Thanks!
0
BadboyPitbull2024 • 13 April 2013, 10:57
torrent downloaded
Show comment
audio: 8video: 8
0
Ahad_Sohail1527 • 03 March 2013, 21:11
torrent downloaded
Show comment
audio: 8video: 6
was a good movie
0
mdon5757481 • 28 February 2013, 04:21 Show comment
audio: 10video: 10
0
anonymous • 12 February 2013, 01:03 Show comment
audio: 1video: 1
good
0
moltakias4235 • 12 January 2013, 01:37
torrent downloaded
Show comment
audio: 7video: 7
quality is good!!!thanks
0
roxenkhan356 • 08 January 2013, 08:09 Show comment
audio: 10video: 10
good mo;vies
0
anonymous • 06 January 2013, 05:59 Show comment
is it in hindi?
0
shakybawa0071761 • 28 September 2012, 16:16
torrent downloaded
Show comment
audio: 9video: 9
Gud 1.....
Show More All

User Opinions

Report a bug