The Fighting Sullivans 1944 DVDRip DivX-VintageFilm

seeders: 6
leechers: 1
Added on Sep 10, 2011 in Movies
Torrent verified. Downloaded 10 times.

Summary:
The lives of a close-knit group of brothers growing up in Iowa during the days of the Great Depression and of World War II and their eventual deaths in action in the Pacific theater are chronicled in this film based on a true story.
Written by Z3RO77170
report summary
Available in versions: DVDRip
The Fighting Sullivans 1944 DVDRip DivX-VintageFilm (Size: 1.37 GB)
  The.Fighting.Sullivans.1944.DVDRip.DivX-VintageFilm.avi 1.37 GB
  Torrent downloaded from Demonoid.me.txt 46 bytes
  screens

Description

The.Fighting.Sullivans.1944.DVDRip.DivX-VintageFilm






Plot:

The lives of a close-knit group of brothers growing up in Iowa during the days of the Great

Depression and of World War II and their eventual deaths in action in the Pacific theater are

chronicled in this film based on a true story.



Review From IMDB



The Sullivan brothers grew up together in a small town in Iowa. They would eventually join the

Navy after Pearl Harbor was attacked and would be killed in action. The story is a true one and

heart wrenching to say the least. Thomas Mitchell is perfectly cast as the father. A very young

Bobby Driscoll plays little Al, the youngest of the 5 Sullivan boys. Anne Baxter and Ward Bond

were magnificent. Get yourself a box of Kleenex for this one folks. It will stay with you for a

long time.





IMDB Rating =


7.6/10 from 929 users





General
Complete name : The.Fighting.Sullivans.1944.DVDRip.DivX-VintageFilm.avi
Format : AVI
Format/Info : Audio Video Interleave
File size : 1.37 GiB
Duration : 1h 52mn
Overall bit rate : 1 745 Kbps
Writing application : VirtualDubMod 1.5.4.1 (build 2178/release)
Writing library : VirtualDubMod build 2178/release

Video
ID : 0
Format : MPEG-4 Visual
Format settings, BVOP : Yes
Format settings, QPel : No
Format settings, GMC : No warppoints
Format settings, Matrix : Default (H.263)
Muxing mode : Packed bitstream
Codec ID : DX50
Codec ID/Hint : DivX 5
Duration : 1h 52mn
Bit rate : 1 630 Kbps
Width : 640 pixels
Height : 480 pixels
Display aspect ratio : 4/3
Frame rate : 23.976 fps
Resolution : 24 bits
Colorimetry : 4:2:0
Scan type : Progressive
Bits/(Pixel*Frame) : 0.221
Stream size : 1.28 GiB (93%)
Writing library : DivX 6.8.5

Audio
ID : 1
Format : MPEG Audio
Format version : Version 1
Format profile : Layer 3
Codec ID : 55
Codec ID/Hint : MP3
Duration : 1h 52mn
Bit rate mode : Variable
Bit rate : 102 Kbps
Nominal bit rate : 128 Kbps
Channel(s) : 2 channels
Sampling rate : 48.0 KHz
Resolution : 16 bits
Stream size : 82.2 MiB (6%)
Alignment : Aligned on interleaves
Interleave, duration : 24 ms (0.58 video frame)
Interleave, preload duration : 543 ms
Writing library : LAME3.97
Encoding settings : -m j -V 4 -q 2 -lowpass 17 --abr 128

Sharing Widget


Download torrent
1.37 GB
seeders:6
leechers:1
The Fighting Sullivans 1944 DVDRip DivX-VintageFilm

Trackers

tracker name Status checked seeders leechers downloads
udp://tracker.openbittorrent.com:80/announce
outdated 30 Aug 2014 - - -
udp://tracker.publicbt.com:80/announce
outdated 30 Aug 2014 - - -
http://inferno.demonoid.me:3402/announce
outdated 26 May 2014 - - -
http://tracker.openbittorrent.com/announce
outdated 07 Aug 2013 - - -
udp://tracker.1337x.org:80/announce
outdated 07 Aug 2013 - - -
http://pow7.com/announce
outdated 07 Aug 2013 - - -
http://tracker.publicbt.com/announce
deleted 07 Aug 2013 - - -
http://tracker.novalayer.org:6969/announce
pending 07 Aug 2013 1 6 0
µTorrent compatible trackers list

Locations

name
ThePirateBay
Limetorrents
Torrent hash: f4a4ad3effaff32bf31edc9a0fa6c33baca7f445

All Comments

audio
8/10
video
8/10
please, leave only comments related to that torrent
or sign-in
0
squire2914 • 24 November 2013, 09:10 Show comment
Thankyou
0
FFTIM2658 • 15 October 2013, 13:47
torrent downloaded
Show comment
audio: 8video: 8
Thanks
0
bartholomew85238 • 03 August 2013, 07:18
torrent downloaded
Show comment
audio: 8video: 8
thank you!
0
weedoreen899 • 15 October 2012, 09:01
torrent downloaded
Show comment
Thanks very much uploader. Great quality and great old movie. Fast download also.

User Opinions

PapaPitufo3779, FFTIM2658, Tom5552302, kickstandsam1501, Dragoncrazy1188, chopped50ford828, cyberlinkcafe460, lonnie1380, kmin175, kelaura136 ... And 7 more
Report a bug