The Hangover Part III 2013 WEBRip XviD AC3 - TODE

seeders: 33
leechers: 6
Added on Jun 7, 2013 by Silmarillion291.32K in Movies
Torrent verified. Downloaded 4,002 times.

Summary:
When one of their own is kidnapped by an angry gangster, the Wolf Pack must track down Mr. Chow, who has escaped from prison and is on the lam.
Written by 5fingerdis48.54K
report summary
The Hangover Part III 2013 WEBRip XviD AC3 - TODE (Size: 713.7 MB)
  sample.avi 17.49 MB
  tode-hangover3.avi 696.21 MB
  Torrent downloaded from extratorrent.com.txt 353 bytes

Description


image



http://www.imdb.com/title/tt1951261/


When one of their own is kidnapped by an angry gangster, the Wolf Pack must track down Mr. Chow, who has escaped from prison and is on the lam.



Director:
Todd Phillips

Writers:
Todd Phillips, Craig Mazin

Stars:
Bradley Cooper, Ed Helms, Zach Galifianakis

Genres:
Comedy

Country:
USA

Language:
English



Format : AVI
Format/Info : Audio Video Interleave
File size : 696 MiB
Duration : 1h 38mn
Overall bit rate : 991 Kbps
Writing application : Lavf55.3.100

Video
ID : 0
Format : MPEG-4 Visual
Format profile : Simple@L3
Format settings, BVOP : No
Format settings, QPel : No
Format settings, GMC : No warppoints
Format settings, Matrix : Default (H.263)
Codec ID : XVID
Codec ID/Hint : XviD
Duration : 1h 38mn
Bit rate : 900 Kbps
Width : 640 pixels
Height : 270 pixels
Display aspect ratio : 2.35:1
Original display aspect ratio : 2.40:1
Frame rate : 23.976 fps
Color space : YUV
Chroma subsampling : 4:2:0
Bit depth : 8 bits
Scan type : Progressive
Compression mode : Lossy
Bits/(Pixel*Frame) : 0.217
Stream size : 632 MiB (91%)
Writing library : XviD 64

Audio
ID : 1
Format : AC-3
Format/Info : Audio Coding 3
Mode extension : CM (complete main)
Format settings, Endianness : Big
Codec ID : 2000
Duration : 1h 38mn
Bit rate mode : Constant
Bit rate : 80.0 Kbps
Channel(s) : 2 channels
Channel positions : Front: L R
Sampling rate : 48.0 KHz
Bit depth : 16 bits
Compression mode : Lossy
Stream size : 56.2 MiB (8%)
Alignment : Aligned on interleaves
Interleave, duration : 32 ms (0.77 video frame)





image
image
image
image
image
image

Related Torrents

torrent name size files age seed leech

Sharing Widget


Download torrent
713.7 MB
seeders:33
leechers:6
The Hangover Part III 2013 WEBRip XviD AC3 - TODE

Trackers

tracker name Status checked seeders leechers downloads
udp://9.rarbg.com:2710/announce
outdated 08 Mar 2014 - - -
udp://tracker.publicbt.com:80/announce
outdated 08 Mar 2014 - - -
udp://tracker.openbittorrent.com:80/announce
outdated 08 Mar 2014 - - -
udp://tracker.istole.it:80/announce
outdated 08 Mar 2014 - - -
udp://tracker.seedceo.com:2710/announce
blocked 02 Sep 2013 - - -
udp://fr33dom.h33t.com:3310/announce
deleted 16 Sep 2013 - - -
udp://www.h33t.com:3310/announce
deleted 16 Sep 2013 - - -
udp://fr33domtracker.h33t.com:3310/announce
deleted 16 Sep 2013 - - -
http://coppersurfer.tk:6969/announce
pending 29 Dec 2013 38 2 46
http://local.tracker/announce
pending 16 Sep 2013 0 0 0
µTorrent compatible trackers list

Locations

name
KickassTorrents
ThePirateBay
ExtraTorrent
Torrent hash: 6176B8EB7450956EDC70F27282BC2740F7B85313

Top Comments

2
chibiwings694 • 24 Jul 2013, 23:57
Annoying Chinese Subs... it messes with another sub when you use one..

All Comments

audio
7/10
video
7/10
please, leave only comments related to that torrent
or sign-in
0
.rD359 • 11 September 2013, 17:09
torrent downloaded
Show comment
audio: 8video: 7
yep a good video to watch clear but the sub really hate it 7 for that.
1
anonymous • 02 August 2013, 02:13 Show comment
audio: 5video: 5
Annoying Chinese Subs.
0
anonymous • 06 August 2013, 11:29 Show comment
can the subs be turned off ?
0
jayxg422 • 29 July 2013, 14:41
torrent downloaded
Show comment
audio: 8video: 8
great work mate
2
chibiwings694 • 24 July 2013, 23:57 Show comment
Annoying Chinese Subs... it messes with another sub when you use one..
0
Sasa93545 • 26 June 2013, 10:05
torrent downloaded
Show comment
audio: 7video: 6
0
devil_no_evil894 • 24 June 2013, 13:55
torrent downloaded
Show comment
audio: 7video: 7
thanks uploader
0
Abhishek986911.56K • 24 June 2013, 09:32
torrent downloaded
Show comment
audio: 8video: 8
Good Rip.
Only The Chinese Subs Distracts As It Can't Be Turned Off.
Otherwise Thumbs Up......biggrin
0
Duk1nfamous2668 • 20 June 2013, 22:42
torrent downloaded
Show comment
audio: 10video: 10
Got what expected. TNX
Show More All

User Opinions

Report a bug