The.Iron.Lady.2011.DvDScr.XviD.Feel-Free

seeders: 4
leechers: 2
Added on Feb 4, 2012 by feel-free20.15K in Movies
Torrent verified. Downloaded 10 times.

Summary:
An elderly Margaret Thatcher talks to the imagined presence of her recently deceased husband as she struggles to come to terms with his death while scenes from her past life, from girlhood to British prime minister, intervene.
Written by Anette14126.48K
report summary
The.Iron.Lady.2011.DvDScr.XviD.Feel-Free (Size: 1.02 GB)
  fd3a77d0c9.jpg 116.27 KB
  The.Iron.Lady.2011.DvDScr.XviD.Feel-Free.avi 1.01 GB
  The.Iron.Lady.2011.DvDScr.XviD.Feel-Free.nfo 3.47 KB
  Torrent downloaded from extratorrent.com.txt 171 bytes
  vlcsnap-2012-02-04-08h21m18s156.png 297.86 KB
  vlcsnap-2012-02-04-08h21m24s230.png 237.11 KB
  vlcsnap-2012-02-04-08h21m38s101.png 380.38 KB
  vlcsnap-2012-02-04-08h22m11s184.png 273.07 KB
  vlcsnap-2012-02-04-08h22m19s14.png 247.81 KB

Description

image

Genre: Biography | Drama
Language:English
IMDb:http://www.imdb.com/title/tt1007029/
Source:TARGET Thanks!

Format : AVI
Format/Info : Audio Video Interleave
File size : 1.01 GiB
Duration : 1h 44mn
Overall bit rate mode : Variable
Overall bit rate : 1 384 Kbps
Writing application : Nandub v1.0rc2

Video
ID : 0
Format : MPEG-4 Visual
Format profile : Advanced Simple@L5
Format settings, BVOP : 2
Format settings, QPel : No
Format settings, GMC : No warppoints
Format settings, Matrix : Default (H.263)
Muxing mode : Packed bitstream
Codec ID : XVID
Codec ID/Hint : XviD
Duration : 1h 44mn
Bit rate : 1 242 Kbps
Width : 640 pixels
Height : 272 pixels
Display aspect ratio : 2.35:1
Frame rate : 23.976 fps
Color space : YUV
Chroma subsampling : 4:2:0
Bit depth : 8 bits
Scan type : Progressive
Compression mode : Lossy
Bits/(Pixel*Frame) : 0.297
Stream size : 932 MiB (90%)
Writing library : XviD 64

Audio
ID : 1
Format : MPEG Audio
Format version : Version 1
Format profile : Layer 3
Mode : Joint stereo
Mode extension : MS Stereo
Codec ID : 55
Codec ID/Hint : MP3
Duration : 1h 44mn
Bit rate mode : Variable
Bit rate : 128 Kbps
Channel(s) : 2 channels
Sampling rate : 48.0 KHz
Compression mode : Lossy
Stream size : 97.1 MiB (9%)
Alignment : Aligned on interleaves
Interleave, duration : 24 ms (0.58 video frame)
Interleave, preload duration : 142 ms
Writing library : LAME3.96r
Encoding settings : -m j -V 4 -q 3 -lowpass 17.5 --abr 128


Plot:
A look at the life of Margaret Thatcher, the former Prime Minister of the United Kingdom, with a focus on the price she paid for power.


image
image
image
image
image

Greets:

CRYS,IMAGINE,LKRG,FXG,3Li,FLAWL3SS,TA,iLLUSiON,EMBER,ETRG,BHRG,iLLUMiNATi,MiSTERE.ViSiON,DTRG SAFCuk009,LU,TheFalcon007,MYSTiC,PrisM,Noir,WBZ,LAP,Rx,Kingdom,SAFCuk009+Fabreezy,HDLiTE,TWiZTED,ExtraTorrentRG.ELEKTRI4KA,MAGNAT,CM8
And to all the other p2p grps past and present




Make sure its a real Feel-Free release @ http://extratorrent.com

Thanks to all who promotes release Feel-Free !!!

Related Torrents

torrent name size files age seed leech

Sharing Widget


Download torrent
1.02 GB
seeders:4
leechers:2
The.Iron.Lady.2011.DvDScr.XviD.Feel-Free

Trackers

tracker name Status checked seeders leechers downloads
udp://tracker.1337x.org:80/announce
outdated 26 Apr 2013 - - -
http://pow7.com/announce
outdated 26 Apr 2013 - - -
udp://tracker.openbittorrent.com:80/announce
outdated 26 Apr 2013 - - -
http://10.rarbg.com/announce
private 26 Apr 2013 - - -
udp://tracker.istole.it:80/announce
outdated 26 Apr 2013 - - -
udp://tracker.publicbt.com:80/announce
outdated 26 Apr 2013 - - -
udp://fr33domtracker.h33t.com:3310/announce
deleted 26 Apr 2013 - - -
udp://tracker.ccc.de:80/announce
deleted 26 Apr 2013 - - -
http://tracker.novalayer.org:6969/announce
pending 26 Apr 2013 0 0 0
ĀµTorrent compatible trackers list

Locations

name
KickassTorrents
ExtraTorrent
Limetorrents
Torrent hash: AE9C1D1944AE6D0DA4320A1E52EFF7B2B8D86379

All Comments

audio
0/10
video
0/10
please, leave only comments related to that torrent
or sign-in

User Opinions

Report a bug