The Mad 2007 DVDRiP AC3-5 1 XviD-SiC

seeders: 0
leechers: 2
Added on Feb 28, 2012 in Movies
Torrent verified. Downloaded 0 times.

Summary:
Flesh-eating zombies trap a doctor (Billy Zane) and his daughter (Maggie Castle) at a truck stop.
Written by sookiKat28.9K
report summary
Available in versions: DVDRip
The Mad 2007 DVDRiP AC3-5 1 XviD-SiC (Size: 1.39 GB)
  Read this before playing this Video.txt 222 bytes
  sample.avi 16.61 MB
  The.Mad.2007.DVDRiP.AC3-5.1.XviD-SiC.avi 1.37 GB
  The.Mad.2007.DVDRiP.AC3-5.1.XviD-SiC.nfo 10.58 KB
  Torrent have been downloaded from Scenetime.com.txt 222 bytes

Description

.
..............................Site Info...........................

- http://www.scenetime.com *_*

SceneTime is going to Close sign up on march/1, hurry up! get in before the doors are closed.

We care to share . Join us on http://www.scenetime.com

Be the first to get new release at http://www.scenetime.com

Seed back for speed


...................................NFO:.................................................










The.Mad.2007.DVDRiP.AC3-5.1.XviD-SiC

Poster:
image

IMDB Link:
http://www.imdb.com/title/tt0848552/

Description:
A horror-thriller in which a doctor and his teenage daughter are terrorized by flesh-eating zombies at a truck stop.General
Complete name : The.Mad.2007.DVDRiP.AC3-5.1.XviD-SiC.avi
Format : AVI
Format/Info : Audio Video Interleave
File size : 1.37 GiB
Duration : 1h 22mn
Overall bit rate : 2 369 Kbps

Video
ID : 0
Format : MPEG-4 Visual
Format profile : Simple@L3
Format settings, BVOP : 2
Format settings, QPel : No
Format settings, GMC : No warppoints
Format settings, Matrix : Default (H.263)
Muxing mode : Packed bitstream
Codec ID : XVID
Codec ID/Hint : XviD
Duration : 1h 22mn
Bit rate : 2 105 Kbps
Width : 720 pixels
Height : 400 pixels
Display aspect ratio : 16:9
Frame rate : 23.976 fps
Color space : YUV
Chroma subsampling : 4:2:0
Bit depth : 8 bits
Scan type : Progressive
Compression mode : Lossy
Bits/(Pixel*Frame) : 0.305
Stream size : 1.22 GiB (89%)
Writing library : XviD 1.0.3 (UTC 2004-12-20)

Audio
ID : 1
Format : AC-3
Format/Info : Audio Coding 3
Mode extension : CM (complete main)
Codec ID : 2000
Duration : 1h 22mn
Bit rate mode : Constant
Bit rate : 256 Kbps
Channel(s) : 6 channels
Channel positions : Front: L C R, Side: L R, LFE
Sampling rate : 48.0 KHz
Bit depth : 16 bits
Compression mode : Lossy
Stream size : 152 MiB (11%)
Alignment : Aligned on interleaves
Interleave, duration : 64 ms (1.53 video frames)
Interleave, preload duration : 192 ms
Title : VTS_01_1 T80 3_2ch 448Kbps DELAY 0ms_new

Screenshots:
image
image
image
image

Note:

Source:

Enjoy!

Respects to T00NG0D, ELEKTRI4KA, PA, YeFsTe, MrRep and everyone in the struggle...RiP MU & BTJ

Related Torrents

torrent name size files age seed leech

Sharing Widget


Download torrent
1.39 GB
seeders:0
leechers:2
The Mad 2007 DVDRiP AC3-5 1 XviD-SiC

Trackers

tracker name Status checked seeders leechers downloads
udp://tracker.publicbt.com:80/announce
outdated 28 Feb 2012 - - -
http://tracker.openbittorrent.com/announce
outdated 28 Feb 2012 - - -
udp://tracker.openbittorrent.com:80/announce
outdated 28 Feb 2012 - - -
http://tracker.publicbt.com/announce
deleted 11 Mar 2013 - - -
ĀµTorrent compatible trackers list

Locations

name
ThePirateBay
Limetorrents
Torrent hash: 4d9849040ce1069a46d051b548b1b76521c17824

All Comments

audio
0/10
video
0/10
please, leave only comments related to that torrent
or sign-in
Report a bug