The Patriot (2000) BluRay 720p Hindi Dubbed With Sample~{Destiny}

seeders: 0
leechers: 10
Added on Sep 28, 2011 in Movies > Dubbed Movies
Torrent verified. Downloaded 0 times.

Summary:
Peaceful farmer Benjamin Martin is driven to lead the Colonial Militia during the American Revolution when a sadistic British officer murders his son.
Written by Anette14121.34K
report summary
Available in versions: 1080p720pBDRipHDRiPDVDDVDRip
The Patriot (2000) BluRay 720p Hindi Dubbed With Sample~{Destiny} (Size: 1.64 GB)
  The Patriot (2000) BluRay 720p Hindi Dubbed With Sample~{Destiny}.mkv 1.62 GB
  sample.mkv 14.89 MB
  The Patriot (2000) BluRay Eng-Subtitle~{Destiny}.srt 97.13 KB
  Cover.jpg 69.35 KB

Description






Release Title: The Patriot (2000)

Release Date: 11 August 2000 (India)

Film Length: 165 minutes

Tagline: What would you do if they destroyed your home, threatened your family. Where would you draw the line?

Storyline: It is 1776 in colonial South Carolina. Benjamin Martin, a French-Indian war hero who is haunted by his past, now wants nothing more then to live peacefully on his small plantation, and wants no part of a war with the most powerful nation in the world, Great Britain. Meanwhile, his two eldest sons, Gabriel and Thomas, can\'t wait to enlist in the newly formed "Continental Army." When South Carolina decides to join the rebellion against England, Gabriel immediately signs up to fight...without his father\'s permission. But when Colonel William Tavington, British dragoon, infamous for his brutal tactics, comes and burns the Martin Plantation to the ground, tragedy strikes. Benjamin quickly finds himself torn between protecting his family, and seeking revenge along with being a part of the birth of new, young, and ambitious nation.



Mel Gibson ... Benjamin Martin
Heath Ledger ... Gabriel Martin
Joely Richardson ... Charlotte Selton
Jason Isaacs ... Col. William Tavington
Chris Cooper ... Col. Harry Burwell
Tchéky Karyo ... Jean Villeneuve
Rene Auberjonois ... Reverend Oliver
Lisa Brenner ... Anne Howard
Tom Wilkinson ... Gen. Lord Charles Cornwallis
Donal Logue ... Dan Scott
Leon Rippy ... John Billings
Adam Baldwin ... Capt. Wilkins
Jay Arlen Jones ... Occam
Joey D. Vieira ... Peter Howard
Gregory Smith ... Thomas Martin



Genre: Action | Drama | War
Format: Matroska
File size: 1.62mb
Duration: 2h 45mn
Movie name: The Patriot (2000) BluRay 720p Hindi Dubbed With Sample~{Destiny}
Language: Hindi
Ripper: Destiny



Budget: $110,000,000 (estimated)
Opening Weekend: $22,413,710 (USA) (2 July 2000) (3061 Screens)
Gross: $113,330,342 (USA) (15 October 2000)


http://www.imdb.com/title/tt0187393/



Video
ID : 1
Format : AVC
Format/Info : Advanced Video Codec
Format profile : Baseline@L3.0
Format settings, CABAC : No
Format settings, ReFrames : 1 frame
Format settings, GOP : M=1, N=25
Codec ID : V_MPEG4/ISO/AVC
Duration : 2h 41mn
Bit rate : 1 334 Kbps
Width : 1 280 pixels
Height : 720 pixels
Display aspect ratio : 16:9
Frame rate : 29.970 fps
Original frame rate : 29.000 fps
Color space : YUV
Chroma subsampling : 4:2:0
Bit depth : 8 bits
Scan type : Progressive
Bits/(Pixel*Frame) : 0.048
Stream size : 1.50 GiB (92%)
Title : Destiny



Audio
ID : 2
Format : MPEG Audio
Format version : Version 1
Format profile : Layer 3
Mode : Joint stereo
Mode extension : MS Stereo
Codec ID : A_MPEG/L3
Codec ID/Hint : MP3
Duration : 2h 41mn
Bit rate mode : Constant
Bit rate : 80.0 Kbps
Channel(s) : 2 channels
Sampling rate : 44.1 KHz
Compression mode : Lossy
Stream size : 92.3 MiB (6%)
Title : Destiny
Writing library : LAME3.98.2
Language : Hindi
















The Patriot (2000) BluRay 720p Hindi Dubbed With Sample And Eng-Subtitle~{Destiny}

Sharing Widget


Download torrent
1.64 GB
seeders:0
leechers:10
The Patriot (2000) BluRay 720p Hindi Dubbed With Sample~{Destiny}

Trackers

tracker name Status checked seeders leechers downloads
udp://tracker.publicbt.com:80/announce
outdated 08 Oct 2013 - - -
udp://tracker.openbittorrent.com:80/announce
outdated 08 Oct 2013 - - -
udp://tracker.torrentbox.com:2710/announce
outdated 08 Oct 2013 - - -
http://cpleft.com:2710/announce
outdated 11 Aug 2013 - - -
udp://tracker.istole.it:80/announce
outdated 11 Aug 2013 - - -
http://10.rarbg.com/announce
private 11 Aug 2013 - - -
http://pow7.com/announce
outdated 11 Aug 2013 - - -
http://i.bandito.org/announce
deleted 08 Oct 2013 - - -
udp://fr33domtracker.h33t.com:3310/announce
deleted 11 Aug 2013 - - -
udp://tracker.ccc.de:80/announce
deleted 11 Aug 2013 - - -
µTorrent compatible trackers list

Locations

name
ExtraTorrent
Torrent hash: bffe0804cd2561c4fb14bd8b83cb0ada830f774f

All Comments

audio
8/10
video
8/10
please, leave only comments related to that torrent
or sign-in
0
amit_mali281 • 22 July 2014, 14:10
torrent downloaded
Show comment
no seeds ... WTF stuck at 94 from 4 days
0
amit_mali281 • 22 July 2014, 14:09
torrent downloaded
Show comment
audio: 7video: 7
no seeds ... WTF stuck at 94 from 4 days
0
Mehdi_Abbasi157 • 13 October 2011, 19:42
torrent downloaded
Show comment
audio: 9video: 10
94% download not more...???
print and audio video r awesome....

User Opinions

Report a bug