The Raven (2012) [XviD - Italian English Ac3 5.1 - Sub Ita Eng] MIRCrew [TNT Village]

seeders: 70
leechers: 26
Added on Apr 21, 2013 by robbyrs10.56K in Movies
Torrent verified. Downloaded 4,579 times.

Summary:
When a madman begins committing horrific murders inspired by Edgar Allan Poe's works, a young Baltimore detective joins forces with Poe to stop him from making his stories a reality.
Written by MoonChild11.65K
report summary
The Raven (2012) [XviD - Italian English Ac3 5.1 - Sub Ita Eng] MIRCrew [TNT Village] (Size: 1.86 GB)
  The Raven (2012).avi 1.86 GB
  The Raven (2012).eng.srt 92.83 KB
  The Raven (2012).forced-ita.srt 761 bytes
  The Raven (2012).srt 80.92 KB

Description

The Raven (2012) [XviD - Italian English Ac3 5.1 - Sub Ita Eng] MIRCrew [TNT Village]




image

image


image


image
Titolo originale The Raven
Lingua originale inglese
Paese di produzione USA, Ungheria, Spagna
Anno 2012
Durata 111 min
Rapporto 2,35:1
Genere thriller
Regia James McTeigue
Sceneggiatura Ben Livingston, Hannah Shakespeare
Produttore Marc D. Evans, Trevor Macy, Aaron Ryder, Richard Sharkey
Produttore esecutivo Jesus Martinez Asencio, Ildiko Kemeny
Casa di produzione Intrepid Pictures, FilmNation Entertainment, Galavis Film, Pioneer Pictures
Distribuzione (Italia) Eagle Pictures
Fotografia Danny Ruhlmann
Montaggio Niven Howie
Effetti speciali Paul Stephenson, Szilvia Paros
Musiche Lucas Vidal
Scenografia Roger Ford

image

7 anni dopo lo splendido ed incompreso V per vendetta, e 3 anni dopo il tutt’altro che esaltante Ninja Assassin, James McTeigue era chiamato ad un doveroso riscatto con The Raven, gothic-

thriller in costume che prova ad immaginare gli ultimi 5 giorni di vita di Edgar Allan Poe. Il 7 ottobre del 1849, infatti, Poe si spense prematuramente, lasciando al mondo una serie di

scritti diventati poi leggendari. Peccato che nessuno sappia cosa condusse Poe alla morte. I primi di ottobre del 1849 il poeta venne trovato in circostanze misteriose per le strade di

Baltimora. Vagava sudicio e angosciato, indossando i vestiti di uno sconosciuto e ripetendo in continuazione il nome ‘Reynolds‘. Ricoverato in ospedale, Poe morì pochi giorni dopo,

alimentando così il suo mito.

image


image


image

John Cusack: Edgar Allan Poe
Alice Eve: Emily
Luke Evans: Detective Emmett Fields
Brendan Gleeson: Colonnello Hamilton
Kevin McNally: Maddux
Pam Ferris: Mrs. Bradley
Brendan Coyle: Reagan
Oliver Jackson-Cohen: Cantrell
Jimmy Yuill: Capitano Eldridge
Sam Hazeldine: Ivan
Dave Legeno: Percy
Adrian Rawlins: Dottor Clements
Michael Cronin: Gentleman
Michael Poole: Professore
Sergej Trifunovic: Marinaio
Ian Virgo: Maresciallo dei vigili del fuoco

Doppiatori italiani

Oreste Baldini: Edgar Allan Poe
Domitilla D'Amico: Emily
Simone D'Andrea: Detective Emmett Fields
Rodolfo Bianchi: Colonnello Hamilton
Claudio Fattoretto: Maddux
Simone Mori: Reagan
Gianfranco Miranda: Cantrell
Diego Reggente: Capitano Eldridge
Gaetano Varcasia: Ivan
Riccardo Rossi: Dottor Clements

image

image

Nel 1849, a Baltimora, un serial killer commette numerosi omicidi ispirandosi ai racconti dello scrittore Edgar Allan Poe. La polizia di Baltimora decide di farsi aiutare dallo scrittore in

persona per fermare l'assassino ed in questo modo Poe inizierà a collaborare con un giovane ispettore................

image

This movie is set in the mid 1800s and involves poet Edgar Allan Poe. A serial killer is on the loose and murdering people using Poe's descriptions from his published stories and poems. Poe

teams up with Detective Fields, a Baltimore policeman to try and catch the killer by using his knowledge of the descriptions. Even though the stories are fictional, they start to become

reality and the killer is a step ahead of them. Then it takes on a personal note as Poe's lover becomes a target. Will they stop the killer in time?

image

image

image

image



image

 show spoilerGeneral
Complete name : The Raven (2012)\The Raven (2012).avi
Format : AVI
Format/Info : Audio Video Interleave
File size : 1.86 GiB
Duration : 1h 50mn
Overall bit rate : 2 409 Kbps
Writing application : VirtualDubMod 1.5.10.2 (build 2540/release)
Writing library : VirtualDubMod build 2540/release

Video
ID : 0
Format : MPEG-4 Visual
Format profile : Simple@L3
Format settings, BVOP : Yes
Format settings, QPel : No
Format settings, GMC : No warppoints
Format settings, Matrix : Default (H.263)
Codec ID : XVID
Codec ID/Hint : XviD
Duration : 1h 50mn
Bit rate : 1 499 Kbps
Width : 704 pixels
Height : 288 pixels
Display aspect ratio : 2.40:1
Frame rate : 24.000 fps
Color space : YUV
Chroma subsampling : 4:2:0
Bit depth : 8 bits
Scan type : Progressive
Bits/(Pixel*Frame) : 0.308
Stream size : 1.16 GiB (62%)

Audio #1
ID : 1
Format : AC-3
Format/Info : Audio Coding 3
Mode extension : CM (complete main)
Codec ID : 2000
Duration : 1h 50mn
Bit rate mode : Constant
Bit rate : 448 Kbps
Channel(s) : 6 channels
Channel positions : Front: L C R, Side: L R, LFE
Sampling rate : 48.0 KHz
Bit depth : 16 bits
Stream size : 355 MiB (19%)
Alignment : Split accross interleaves
Interleave, duration : 42 ms (1.00 video frame)
Interleave, preload duration : 500 ms

Audio #2
ID : 2
Format : AC-3
Format/Info : Audio Coding 3
Mode extension : CM (complete main)
Codec ID : 2000
Duration : 1h 50mn
Bit rate mode : Constant
Bit rate : 448 Kbps
Channel(s) : 6 channels
Channel positions : Front: L C R, Side: L R, LFE
Sampling rate : 48.0 KHz
Bit depth : 16 bits
Stream size : 355 MiB (19%)
Alignment : Split accross interleaves
Interleave, duration : 42 ms (1.00 video frame)
Interleave, preload duration : 500 ms






Sharing Widget


Download torrent
1.86 GB
seeders:70
leechers:26
The Raven (2012) [XviD - Italian English Ac3 5.1 - Sub Ita Eng] MIRCrew [TNT Village]

Trackers

tracker name Status checked seeders leechers downloads
udp://tracker.istole.it:80/announce
outdated 02 Sep 2013 - - -
udp://tracker.btscene.eu:80/announce
outdated 02 Sep 2013 - - -
udp://tracker.1337x.org:80/announce
outdated 02 Sep 2013 - - -
udp://tracker.publicbt.com:80/announce
outdated 02 Sep 2013 - - -
udp://tracker.torrentbox.com:2710/announce
outdated 02 Sep 2013 - - -
udp://tracker2.torrentbox.com:2710/announce
outdated 02 Sep 2013 - - -
udp://tracker.openbittorrent.com:80/announce
outdated 02 Sep 2013 - - -
udp://tracker.tntvillage.scambioetico.org:2710/announce
blocked 02 Sep 2013 - - -
udp://fr33domtracker.h33t.com:3310/announce
deleted 02 Sep 2013 - - -
http://9.rarbg.com:2710/announce
private 02 Sep 2013 - - -
µTorrent compatible trackers list

Locations

name
KickassTorrents
ExtraTorrent
Torrent hash: AAAF1ABB4E98E659391F5F0EF988FAEBFE384361

All Comments

audio
0/10
video
0/10
please, leave only comments related to that torrent
or sign-in
Report a bug