The Three Musketeers (2011) DVDRip XviD-MAXSPEED

seeders: 70
leechers: 8
Added on Feb 3, 2012 by piratepedia699.53K in Movies
Torrent verified. Downloaded 2,922 times.

Summary:
The hot-headed young D'Artagnan along with three former legendary but now down on their luck Musketeers must unite and defeat a beautiful double agent and her villainous employer from seizing the French throne and engulfing Europe in war.
Written by phoenix66112.37K
report summary
The Three Musketeers (2011) DVDRip XviD-MAXSPEED (Size: 1.57 GB)
  The Three Musketeers (2011) DVDRip XviD-MAXSPEED www.torentz.3xforum.ro.avi 1.56 GB
  sample.avi 9.96 MB
  screencaps.jpeg 673.66 KB
  The Three Musketeers (2011) DVDRip XviD-MAXSPEED.nfo 2.67 KB
  Torrent downloaded from Demonoid.me.txt 46 bytes
  Torrent downloaded from extratorrent.com.txt 40 bytes
  Torrent downloaded from Rarbg.com.txt 33 bytes
  torrent downloaded from H33T.com.txt 32 bytes

Description

http://www.torentz.3xforum.ro/post/2593/1/The_Three_Musketeers_2011_DVDRip_XviD-MAXSPEED/
.
image
.
Screens:
..
image
image
image
image
.
Alternative:
.
http://www.postimg.com/image/60000/photo-59084.jpg
http://www.postimg.com/image/60000/photo-59085.jpg
http://www.postimg.com/image/60000/photo-59086.jpg
http://www.postimg.com/image/60000/photo-59087.jpg
.
ScreenCaps:
.
image
.
The Three Musketeers (2011) DVDRip XviD-MAXSPEED
Format : AVI
Format/Info : Audio Video Interleave
Format profile : OpenDML
File size : 1.56 GiB
Duration : 1h 50mn
Overall bit rate : 2 025 Kbps
Writing application : VirtualDubMod 1.5.10.2 (build 2542/release)
Writing library : VirtualDubMod build 2542/release
Original source form : MAX TORRENTZ
Copyright : SIGISMUNT
.
Video
ID : 0
Format : MPEG-4 Visual
Format profile : AdvancedSimple@L5
Format settings, BVOP : Yes
Format settings, QPel : No
Format settings, GMC : No warppoints
Format settings, Matrix : Custom
Muxing mode : Packed bitstream
Codec ID : XVID
Codec ID/Hint : XviD
Duration : 1h 50mn
Bit rate : 1 635 Kbps
Width : 720 pixels
Height : 304 pixels
Display aspect ratio : 2.35:1
Frame rate : 23.976 fps
Resolution : 24 bits
Colorimetry : 4:2:0
Scan type : Progressive
Bits/(Pixel*Frame) : 0.312
Stream size : 1.26 GiB (81%)
Writing library : XviD 58
.
Audio
ID : 1
Format : AC-3
Format/Info : Audio Coding 3
Codec ID : 2000
Duration : 1h 50mn
Bit rate mode : Constant
Bit rate : 384 Kbps
Channel(s) : 6 channels
Channel positions : Front: L C R, Surround: L R, LFE
Sampling rate : 48.0 KHz
Stream size : 304 MiB (19%)
Alignment : Aligned on interleaves
Interleave, duration : 64 ms (1.53 video frames)
Interleave, preload duration : 192 ms
.
Source: DVD (perfect a/v/sync quality,sample included)
This torrent is not seedbox supported,please seed it to the MAX
.
Note: We need anything you can offer as early releases,seedboxes,links,accounts,etc
please contact us on piratepedia[@]msn/gmail.com or our website torentz 3xforum ro
.
How To Get Your Maxspeed (uTorrent)
.
Torrent Client - Preferences - Bandwidth - Number of connections - Set aprox. 500 for each 
Torrent Client - Preferences - BiTorrent - Protocol Encryption - Forced
Bandwidth Allocation - High (Set download/upload limit - Unlimited)
Stop Other Active Torrents - Start downloading and wait for connections.
Enjoy and Seed for at least 1:1 ratio. Don't forget to say thanks/leave reviews.
Before downloading you should check/google search sample "release name""sample".
Greets to all actual/future p2p/scene QUALITY groups and affiliate websites.
Don't trust IMDb robot or bad ratings,always watch some trailers first.
Ignore stupid comments/fake/mislabeled/no-DVDrips/CAM/TS/RAR uploads.
Please spread this release/torrent to your friends/forums/etc.
If you need translation subs visit some subtitles sites.
Report if you see online streaming or other spam links.
Recommended movie player VLC PLAYER.

Related Torrents

torrent name size files age seed leech

Sharing Widget


Download torrent
1.57 GB
seeders:70
leechers:8
The Three Musketeers (2011) DVDRip XviD-MAXSPEED

Trackers

tracker name Status checked seeders leechers downloads
udp://tracker.istole.it:80/announce
outdated 05 Oct 2014 - - -
udp://tracker.openbittorrent.com:80/announce
outdated 05 Oct 2014 - - -
http://inferno.demonoid.me:3416/announce
outdated 05 Oct 2014 - - -
udp://9.rarbg.me:2710/announce
outdated 05 Oct 2014 - - -
udp://tracker.publicbt.com:80/announce
outdated 05 Oct 2014 - - -
udp://tracker.1337x.org:80/announce
outdated 17 Sep 2013 - - -
http://cpleft.com:2710/announce
outdated 17 Sep 2013 - - -
udp://11.rarbg.me:80/announce
blocked 30 Aug 2014 - - -
udp://fr33domtracker.h33t.com:3310/announce
deleted 17 Sep 2013 - - -
udp://10.rarbg.me:80/announce
pending 05 Oct 2014 67 4 10
udp://tracker.novalayer.org:6969/announce
pending 17 Sep 2013 0 0 0
http://local.tracker/announce
pending 17 Sep 2013 0 0 0
ĀµTorrent compatible trackers list

Locations

name
KickassTorrents
ThePirateBay
Limetorrents
Torrent hash: 632045E8BC80C70D49008CC0217411E4850CA06D

Top Comments

24
Wamphire173 • 04 Feb 2012, 06:06
torrent downloaded
audio: 10video: 10
Good rip a10v10
13
anonymous • 03 Feb 2012, 20:53
piratepedia ... ur milkshake brings all the boys to the yard.
7
VinceTheBone1930 • 04 Feb 2012, 06:06
torrent downloaded
audio: 10video: 10
good

All Comments

audio
9/10
video
9/10
please, leave only comments related to that torrent
or sign-in
1
kozmikboricua622 • 20 August 2014, 10:24
torrent downloaded
Show comment
This version of the Musketeers really puts the story to shame. The whole Eastern influence just messed it all up. A9V9
1
uploadertest1252 • 16 July 2014, 06:48
torrent downloaded
Show comment
audio: 10video: 10
Great
1
weka007174 • 05 May 2014, 11:08
torrent downloaded
Show comment
audio: 10video: 10
The copy is great ... but the sound didn't work on any player except VLC
2
Stevefdm1402 • 07 April 2014, 20:35
torrent downloaded
Show comment
audio: 9video: 9
The quality is great, thanks.
1
evrajesh103 • 03 April 2014, 03:23
torrent downloaded
Show comment
nice movie
1
moscow1305 • 25 January 2014, 23:29
torrent downloaded
Show comment
audio: 8video: 8
Vid 8 Sound 8. Entertainment if you switch off and just enjoy the film for exactly that.
0
Jmd0071722 • 20 January 2014, 13:35
torrent downloaded
Show comment
awesome
0
Jmd0071722 • 20 January 2014, 13:35
torrent downloaded
Show comment
awesome
1
micaso1971215 • 16 December 2013, 22:00
torrent downloaded
Show comment
audio: 9video: 9
Great picture and sound
-1
HelveticaBold531 • 12 December 2013, 02:30
torrent downloaded
Show comment
audio: 8video: 1
Corrupt copy constantly skips.
Show More All

User Opinions

TeGiiGii4478, heldens31498, toxictoadz1243, godslinux975, nikozzz943, mrshark9322335, steveo77276, Aleky140, blkjacku2140, shishtox80 ... And 2796 more
alfa_X877, phillyfanrr72570, gmokalis353, mouse22333, broascamihai303, djbigvick76, whyguy14, looking13, Serg038, Wild West2 ... And 96 more
Report a bug