The Three Stooges 2012 720p x264 Mp4 T S R G

seeders: 2
leechers: 1
Added on Jul 14, 2012 by smecheru10005190 in Movies
Torrent verified. Downloaded 127 times.

The Three Stooges 2012 720p x264 Mp4 T S R G (Size: 1.25 GB)
  The.Three.Stooges.2012.720p.x264.Mp4.AAC.T.S.R.G..mp4 1.23 GB
  The.Three.Stooges.2012.720p.x264.Mp4.AAC.T.S.R.G.Sample.mp4 13.93 MB
  The.Three.Stooges.2012.720p.x264.Mp4.AAC.T.S.R.G.nfo 3.68 KB
  Three.Stooges.1.png 1.3 MB
  Three.Stooges.2.png 1.35 MB
  Three.Stooges.3.png 895.76 KB
  Three.Stooges.Cover.jpg 9.59 KB
  Torrent downloaded from Demonoid.me.txt 46 bytes

Description

image
General
Complete name : The.Three.Stooges.2012.720p.x264.Mp4.AAC.T.S.R.G.
Format : MPEG-4
Format profile : Base Media / Version 2
Codec ID : mp42
File size : 1.29 GiB
Duration : 1h 33mn
Overall bit rate : 1 968 Kbps

ID : 1
Format : AVC
Format/Info : Advanced Video Codec
Format profile : Main@L3.1
Format settings, CABAC : Yes
Format settings, ReFrames : 4 frames
Codec ID : avc1
Codec ID/Info : Advanced Video Coding
Duration : 1h 33mn
Bit rate mode : Variable
Bit rate : 1 900 Kbps
Width : 1 280 pixels
Height : 544 pixels
Display aspect ratio : 2.35:1
Frame rate mode : Variable
Frame rate : 24.000 fps
Minimum frame rate : 23.994 fps
Maximum frame rate : 24.006 fps
Resolution : 8 bits
Colorimetry : 4:2:0
Scan type : Progressive
Bits/(Pixel*Frame) : 0.114
Stream size : 1.24 GiB (97%)
Writing library : x264 core 120

image
Audio
ID : 2
Format : AAC
Format/Info : Advanced Audio Codec
Format version : Version 4
Format profile : LC
Format settings, SBR : No
Codec ID : 40
Duration : 1h 33mn
Bit rate mode : Variable
Bit rate : 64.0 Kbps
Maximum bit rate : 109 Kbps
Channel(s) : 2 channels
Channel positions : L R
Sampling rate : 48.0 KHz
Stream size : 42.9 MiB (3%)
Language : English
Encoded date : UTC 2012-07-02 14:33:29
Tagged date : UTC 2012-07-02 15:22:25
Sample Included: Yes
Screen Shots Included: Yes
Cover Included: Yes
NFO Included: Yes
Encoded By: Thunder
Source: hdchina

image
image
image
image

Related Torrents

torrent name size files age seed leech

Sharing Widget


Download torrent
1.25 GB
seeders:2
leechers:1
The Three Stooges 2012 720p x264 Mp4 T S R G

Trackers

tracker name Status checked seeders leechers downloads
udp://tracker.openbittorrent.com:80/announce
outdated 10 Sep 2013 - - -
udp://tracker.1337x.org:80/announce
outdated 10 Sep 2013 - - -
http://tracker.istole.it/announce
outdated 10 Sep 2013 - - -
udp://tracker.istole.it:80/announce
outdated 10 Sep 2013 - - -
udp://tracker.publicbt.com:80/announce
outdated 10 Sep 2013 - - -
http://inferno.demonoid.me:3390/announce
outdated 10 Sep 2013 - - -
http://exodus.desync.com:6969/announce
blocked 10 Sep 2013 - - -
http://tracker.publicbt.com/announce
deleted 10 Sep 2013 - - -
udp://fr33domtracker.h33t.com:3310/announce
deleted 10 Sep 2013 - - -
µTorrent compatible trackers list

Locations

name
KickassTorrents
Torrent hash: 87DEEA42D049D64F8778286F93CFC1DB8D6B6875

All Comments

audio
9/10
video
9/10
please, leave only comments related to that torrent
or sign-in
0
Soboo23 • 03 August 2012, 16:34
torrent downloaded
Show comment
audio: 9video: 9
0
beanyjo433 • 01 August 2012, 17:27
torrent downloaded
Show comment
audio: 10video: 10
1
Larika51 • 24 July 2012, 10:55
torrent downloaded
Show comment
audio: 10video: 10

User Opinions

asteroid22015066, beanyjo433, Larika51, Soboo23, Crisina14
Shinoku313.08K
Report a bug