The Twilight Saga Breaking Dawn Part 1 2011 V2 TS READNFO XviD DTRG

seeders: 2
leechers: 1
Added on Nov 28, 2011 in Movies
Torrent verified. Downloaded 148 times.

Summary:
The Quileutes close in on expecting parents Edward and Bella, whose unborn child poses a threat to the Wolf Pack and the towns people of Forks.
Written by ROBBREDD689864
report summary
The Twilight Saga Breaking Dawn Part 1 2011 V2 TS READNFO XviD DTRG (Size: 1.09 GB)
  The Twilight Saga Breaking Dawn Part 1 2011 V2 TS READNFO XviD.avi 1.08 GB
  sample.avi 8.72 MB
  read me.txt 91 bytes
  Twilight.srt.srt 813 bytes
  Torrent downloaded from extratorrent.com.txt 353 bytes

Description






Format : AVI
Format/Info : Audio Video Interleave
File size : 1.08 GiB
Duration : 1h 46mn
Overall bit rate : 1 446 Kbps
Writing application : VirtualDubMod 1.5.10.2 (build 2540/release)
Writing library : VirtualDubMod build 2540/release

Video
ID : 0
Format : MPEG-4 Visual
Format profile : Advanced Simple@L5
Format settings, BVOP : 1
Format settings, QPel : No
Format settings, GMC : No warppoints
Format settings, Matrix : Default (H.263)
Muxing mode : Packed bitstream
Codec ID : XVID
Codec ID/Hint : XviD
Duration : 1h 46mn
Bit rate : 1 053 Kbps
Width : 672 pixels
Height : 282 pixels
Display aspect ratio : 2.40:1
Frame rate : 25.000 fps
Color space : YUV
Chroma subsampling : 4:2:0
Bit depth : 8 bits
Scan type : Progressive
Compression mode : Lossy
Bits/(Pixel*Frame) : 0.222
Stream size : 805 MiB (73%)
Writing library : XviD 64

Audio
ID : 1
Format : AC-3
Format/Info : Audio Coding 3
Mode extension : CM (complete main)
Codec ID : 2000
Duration : 1h 46mn
Bit rate mode : Constant
Bit rate : 384 Kbps
Channel(s) : 2 channels
Channel positions : Front: L R
Sampling rate : 48.0 KHz
Bit depth : 16 bits
Compression mode : Lossy
Stream size : 294 MiB (27%)
Alignment : Split accross interleaves
Interleave, duration : 40 ms (1.00 video frame)
Interleave, preload duration : 500 ms












http://www.imdb.com/title/tt1324999/





Ratings: 4.7/10 from 26,161 users Metascore: 45/100
Reviews: 267 user | 187 critic | 36 from Metacritic.com

The Quileute\'s close in on expecting parents Edward and Bella, whose unborn child poses a threat to the Wolf Pack and the towns people of Forks.
Director:
Bill Condon
Writers:
Melissa Rosenberg (screenplay), Stephenie Meyer (novel)
Stars:
Kristen Stewart, Robert Pattinson and Taylor Lautner


















Source Used



FYA 720p ..............Thanksy



Reason for READNFO apart from the fact i hate the site of the twilight saga by now but was asked to do this ..........Released this yesterday file was corrupt so redone it and hardcoded the subs
Also included the sub files incase anyone wants to add them to a previous download they have

Wasnt gonna bother as the last TS went down well but had a go at the new TNZ source......Plenty blah blah filters but check out the sample provided


Enjoy






Greetz to IMAGiNE,Flawl3ss,EMBER,ETRG,BHRG,iLLUMiNATi,MiSTERE









Related Torrents

torrent name size files age seed leech

Sharing Widget


Download torrent
1.09 GB
seeders:2
leechers:1
The Twilight Saga Breaking Dawn Part 1 2011 V2 TS READNFO XviD DTRG

Trackers

tracker name Status checked seeders leechers downloads
udp://tracker.publicbt.com:80/announce
outdated 28 Nov 2011 - - -
udp://tracker.1337x.org:80/announce
outdated 28 Nov 2011 - - -
udp://tracker.openbittorrent.com:80/announce
outdated 28 Nov 2011 - - -
http://tracker.openbittorrent.com/announce
outdated 28 Nov 2011 - - -
http://tracker.publicbt.com/announce
deleted 11 Mar 2013 - - -
http://9.rarbg.com:2710/announce
private 28 Nov 2011 - - -
ĀµTorrent compatible trackers list

Locations

name
ExtraTorrent
Torrent hash: 7a7075e031b4af82000dfac89e894062994b5ea8

All Comments

audio
8/10
video
9/10
please, leave only comments related to that torrent
or sign-in
0
WhItE_BeArD12.01K • 24 March 2012, 17:15
torrent downloaded
Show comment
audio: 8video: 9
gppd movir
0
anonymous • 14 January 2012, 10:46 Show comment
quite poor quality!! I found HD online just search in google for "2devil4inside" they also have fast download server.great site

User Opinions

Report a bug