The Veteran X264 AC3 CrEwSaDe

seeders: 0
leechers: 1
Added on Jul 29, 2011 in Movies
Torrent verified. Downloaded 0 times.

Summary:
A soldier returning from the war in Afghanistan uncovers a conspiracy involving the intelligence services and a gang of drug dealers.
Written by TheStrength41.23K
report summary
Available in versions: 1080p720pHDRiPDVDDVDRip
The Veteran X264 AC3 CrEwSaDe (Size: 702.25 MB)
  Downloaded from www.scenetime.com.txt 195 bytes
  Read This Guide First.txt 195 bytes
  sample.mkv 4.14 MB
  The Veteran X264 AC3 CrEwSaDe.mkv 698.1 MB
  The Veteran X264 AC3 CrEwSaDe.nfo 9.01 KB

Description

.

http://www.scenetime.com - SceneTime [ We been having it ] !!!


How come you press harder on a remote control when you know the battery is dead? so you better seed to get speed ;)

Seed back for speed


...................................NFO:.................................................
````````..-:+ooyhhdmNNNNMMMMMMMMMMMMMMMMMMMMMMMMMMMMMMMMMMMMMMMMMMMMMMMMMMMMMMMNms+-.``
````::/+osymmmNNNMMMMMMMMMMMMMMMMMMMMMMMMMMMMMMMMMMMMMMMMMMMMMMMMMMMMMMMMNs/.`
``-:/+oosydmmNNNMMMMMMMMMMMMMMMMMMMMMMMMMMMMMMMMMMMMMMMMMMMMMMMMMMMMMMMMMms:.```
``.-/+oosyhmNNNNMMMMMMMMMMMMMMMMMMMMMMMMMMMMMMMMMMMMMMMMMMMMMMMMMMMMMMMMMMNmyo:``
``-:::::/ohmNNMMMMMMMMMMMMMMMMMMMMMMMMMMMMMMMMMMMMMMMMMMMMMMMMMMMMMMMMMMMMMNmyo-`
`.-:---:/shdmNMMMMMMMMMMMMMMMMMMMMMMMMMMMMMMMMMMMMMMMMMMMMMMMMMMMMMMMMMMMMMMNmy+-``
`.-/+ydmNNNNMMMMMMMMMMMMMMMMMMMMMMMMMMMMMMMMMMMMMMMMMMMMMMMMMMMMMMMMMMMMMMNds+.`
`.:+ydNNNNMMMMMMMMMMMMMMMMMMMMMMMMMMMMMMMMMMMMMMMMMMMMMMMMMMMMMMMMMMMMMMNds/.
``...`` ``-/osydmNNMMMMMMMMMMMMMMMMMMMMMMMMMMMMMMMMMMMMMMMMMMMMMMMMMMMMMNmhso:-`
````````` `.-+shdmNNMMMMMMMMMMMMMMMMMMMMMMMMMMMMMMMMMMMMMMMMMNNmmhso:-``
`.-/oydNNMMMMMMMMMMMMMMMMMMMMMMMMMMMMMMMMMNmmhs+:--.````...-:-`
`.:ohmNNNMMMMMMMMMMMMMMMMMMMMMMMMMMMmd+--.`` `.-:-......`
` `./oydmNNMMMMMMMMMMMMMMMMMMMMMNmhs/.` ````` ``` `
: `.:+ymNNNMMMMMMMMMMMMMMNmdhys//-.` `- `
` .:shmNNMMMMMMMMMMNmhs+:.` `` .
`` `/hmNMMMMMMMMMMmho:-```` `.``
`.` ` `/ymNMMMMMMMMMNmy+-....-` ``-.```
````....```````..-.` `.` .odNMMMMMMMMMMNhs+o+/+/---.. `-.-/so/.`
`.:ooooo++syy+-..` `.. .+hNMMMMMMMMMMMmhhdhhs++-.://-/++::///--oddo:`
`.-:/osss+/:-.-::..``-+dNMMMMMMMMMMMNNNNNNNmd:`` `.-.```.+sdho:.
````---.````.--+syhdyso++oo//:-:/smMMMMMMMMMMMMMNMMMMMNms/:-``..-:://oydmy:.
`.-/oso/::::/+osyhdddhhhhysoo+++sdNMMMMMMMMMMMMMMMMMMMMNNhy+/:/oohyhhmNNdo-`
``:ooo+++ooshdddmmmmmmddhysoooosydNMMMMMMMMMMMMMMMMMMMMMMNmmdhhdmmNNNNmmy/.
`..-::/oymNNNNNNNNmmdhyso+ooosshmMMMMMMMMMMMMMMMMMMMMMMMMNddmNNNNNNmho-`
``-:+yhmNNNNNNNmddhyso+++++ooydNMMMMMMMMMMMMMMMMNNNmhmNNmhdNNNNNdyo.
``.:ydmmNNNNmmmdhs++/:///+osyhmNMMMMMMMMMMMMMMMMNdooosymmNMNms/--.`
`-/ydmmNmmmmds/-----:/++syhmNMMMMMMMMMMMMMNNNNmysssydmmmd/.``
`:odmmmmhhy:.``..:/++osyydNMMMMMMMMMMMMMNNNNNmhssshhh+:.`
.:oyhhhss/.```.:++++ooyhdmNMMMMMMMMMMMMNNmdhy+/::/::.``
`.:oso+/-` .+oo+/+osydmNMMMMMMMMMMMNNmho/:-.``..`
`.-:-..`` `:+++/+osydmNMMMMMMMMMMNmds+-.``` ``
```.``` `-::::/+shmNMMMMMMMMMmhs:::.``
````` ````.:ohmNMMMMMMMNdo/++o-`
`-+hmNNMMMMNmdhyso/`
`:oshhyhddhyo+:.`
`...-:-.`` ``
@@@@@@@ @@@@@@@ @@@@@@@@ @@@ @@@ @@@ @@@@@@ @@@@@@ @@@@@@@ @@@@@@@@
@@@@@@@@ @@@@@@@@ @@@@@@@@ @@@ @@@ @@@ @@@@@@@ @@@@@@@@ @@@@@@@@ @@@@@@@@
!@@ @@! @@@ @@! @@! @@! @@! !@@ @@! @@@ @@! @@@ @@!
!@! !@! @!@ !@! !@! !@! !@! !@! !@! @!@ !@! @!@ !@!
!@! @!@!!@! @!!!:! @!! !!@ @!@ !!@@!! @!@!@!@! @!@ !@! @!!!:!
!!! !!@!@! !!!!!: !@! !!! !@! !!@!!! !!!@!!!! !@! !!! !!!!!:
:!! !!: :!! !!: !!: !!: !!: !:! !!: !!! !!: !!! !!:
:!: :!: !:! :!: :!: :!: :!: !:! :!: !:! :!: !:! :!:
::: ::: :: ::: :: :::: :::: :: ::: :::: :: :: ::: :::: :: :: ::::
:: :: : : : : : :: :: :: : : : :: : : : : : :: : : : :: ::

Release Brought to you by CrEwSaDe


******************************************************************************************************

**The Veteran X264 AC3 ** - CrEwSaDe

******************************************************************************************************

Ripper ...........: CrEwSaDe IMDB Rating.......: 6.0/10
Video Codec.......: Matroska Release Date......:
Audio Codec.......: AC-3 Theatre Date......: 29 April 2011 (UK)
Audio Bitrate.....: 128 Kbps Runtime...........: 1h 38mn
Subtitles.........: None Language..........: English
Resolution........: 720x400 IMDb URL..........http://www.imdb.com/title/tt1653700/

SOURCES:The.Veteran.2011.720p.BluRay.x264-SAiMORNY

VIDEO: The.Veteran.2011.720p.BluRay.x264-SAiMORNY Thanks Guys :bow:
AUDIO: The.Veteran.2011.720p.BluRay.x264-SAiMORNY Thanks Guys :bow:

Plot:A soldier returning from the war in Afghanistan uncovers a conspiracy involving the intelligence services and a gang of drug dealers.

Screens:

Youtube Trailer:

[video=

Sample Included NO

Notes:
Format : Matroska
File size : 698 MiB
Duration : 1h 38mn
Overall bit rate : 995 Kbps
Encoded date : UTC 2011-07-29 13:04:38
Writing application : mkvmerge v4.8.0
Writing library : libebml v1.2.0 + libmatroska v1.1.0

Video
ID : 1
Format : AVC
Format/Info : Advanced Video Codec
Format profile : High@L3.0
Format settings, CABAC : Yes
Format settings, ReFrames : 4 frames
Muxing mode : Container profile=Unknown@3.0
Codec ID : V_MPEG4/ISO/AVC
Duration : 1h 38mn
Bit rate : 865 Kbps
Width : 720 pixels
Height : 400 pixels
Display aspect ratio : 16:9
Frame rate : 24.000 fps
Color space : YUV
Chroma subsampling : 4:2:0
Bit depth : 8 bits
Scan type : Progressive
Bits/(Pixel*Frame) : 0.125
Stream size : 594 MiB (85%)
Writing library : x264 core 115 r1995 c1e60b9
Encoding settings : cabac=1 / ref=3 / deblock=1:-1:-1 / analyse=0x3:0x133 / me=tesa / subme=8 / psy=1 / psy_rd=1.00:0.15 / mixed_ref=1 / me_range=32 / chroma_me=1 / trellis=2 / 8x8dct=1 / cqm=0 / deadzone=21,11 / fast_pskip=1 / chroma_qp_offset=-3 / threads=6 / sliced_threads=0 / nr=0 / decimate=1 / interlaced=0 / bluray_compat=0 / constrained_intra=0 / bframes=3 / b_pyramid=2 / b_adapt=2 / b_bias=0 / direct=3 / weightb=1 / open_gop=0 / weightp=2 / keyint=250 / keyint_min=24 / scenecut=40 / intra_refresh=0 / rc_lookahead=40 / rc=2pass / mbtree=1 / bitrate=865 / ratetol=1.0 / qcomp=0.60 / qpmin=10 / qpmax=51 / qpstep=4 / cplxblur=20.0 / qblur=0.5 / ip_ratio=1.40 / aq=1:1.00

Audio
ID : 2
Format : AC-3
Format/Info : Audio Coding 3
Mode extension : CM (complete main)
Codec ID : A_AC3
Duration : 1h 38mn
Bit rate mode : Constant
Bit rate : 128 Kbps
Channel(s) : 6 channels
Channel positions : Front: L C R, Side: L R, LFE
Sampling rate : 48.0 KHz
Bit depth : 16 bits
Stream size : 89.8 MiB (13%)


Greets:
Imagine, FLAWL3SS, Rx ,SAFCuk009, THC, Boobyblue,TaRiQ786 and all other p2pgroups past and present

CrEwSaDe are currently Looking for unreleased DVD's,Screeners,New Music Releases,R5's,Audio,Cams,
Silvers,syncers,cammers and Any Other Good Sources You May Have To Offer
Contact us @ CrEwSaDe@hushmail.com

image

Sharing Widget


Download torrent
702.25 MB
seeders:0
leechers:1
The Veteran X264 AC3 CrEwSaDe

Trackers

tracker name Status checked seeders leechers downloads
udp://tracker.publicbt.com:80/announce
outdated 29 Jul 2011 - - -
http://tracker.openbittorrent.com/announce
outdated 29 Jul 2011 - - -
udp://tracker.openbittorrent.com:80/announce
outdated 29 Jul 2011 - - -
http://tracker.publicbt.com/announce
deleted 18 Aug 2011 - - -
µTorrent compatible trackers list

Locations

name
ThePirateBay
Torrent hash: a6c08dddc17f5ed40404f55ca40e4c5e54f67235

All Comments

audio
0/10
video
0/10
please, leave only comments related to that torrent
or sign-in
Report a bug