Ultimate Spiderman S01E06 Why I Hate the Gym 720p WEB-DL DD5 1 H

seeders: 29
leechers: 2
Added on Apr 30, 2012 in TV
Torrent verified. Downloaded 2,837 times.

  • View all Ultimate Spider-man episodes
  • Episode title: Why I Hate Gym
  • Episode: S01E06
  • Air date: 29 April 2012
  • IMDb link: 1722512
  • Original run: 01 April 2011 — Present
  • Summary:
    The newest addition to the Spider-Man franchise, Ultimate Spider-Man is loosely based on Brian Michael Bendis' comic book series of the same name, following the adventures of a "redefined" Peter Parker who is still in high school and has only been Spider-Man for a year. When Nick Fury, director of S.H.I.E.L.D., offers Spidey a chance to receive special training, Spider-Man must learn to work with other teenage superheroes if he wants to become "The Ultimate Spider-Man." The web-slinger will face his share of villains, but at the same time will come to terms with his new powers and get to know his own destiny.
    Written by Stormarekilla31.69K
    report summary
Ultimate Spiderman S01E06 Why I Hate the Gym 720p WEB-DL DD5 1 H (Size: 590.34 MB)
  Ultimate.Spiderman.S01E06.Why.I.Hate.the.Gym.720p.WEB-DL.DD5.1.H264-NTb.mkv 590.32 MB
  Release Notes.txt 21.1 KB
  Torrent downloaded from Demonoid.me.txt 46 bytes

Description

image

6 6 "Why I Hate Gym" TBA Man of Action & Joe Fallon April 29, 2012 106
Taskmaster goes undercover and infiltrates Peter's school to seek out Spider-Man. Peter and White Tiger must put their
differences aside and work together in order to save their friends from a foe capable of duplicating their physical fighting skills.
Introducing characters: Taskmaster

Format : Matroska
File size : 590 MiB
Duration : 22mn 8s
Overall bit rate : 3 728 Kbps
Encoded date : UTC 2012-04-30 08:27:16
Writing application : mkvmerge v5.5.0 ('Healer') built on Apr 6 2012 21:43:24
Writing library : libebml v1.2.3 + libmatroska v1.3.0

Video
ID : 1
Format : AVC
Format/Info : Advanced Video Codec
Format profile : High@L3.1
Format settings, CABAC : No
Format settings, ReFrames : 2 frames
Muxing mode : Header stripping
Codec ID : V_MPEG4/ISO/AVC
Duration : 22mn 8s
Bit rate : 3 270 Kbps
Width : 1 280 pixels
Height : 720 pixels
Display aspect ratio : 16:9
Frame rate : 23.976 fps
Color space : YUV
Chroma subsampling : 4:2:0
Bit depth : 8 bits
Scan type : Progressive
Bits/(Pixel*Frame) : 0.148
Stream size : 518 MiB (88%)
Language : English
Color primaries : BT.709-5, BT.1361, IEC 61966-2-4, SMPTE RP177
Transfer characteristics : BT.709-5, BT.1361
Matrix coefficients : BT.709-5, BT.1361, IEC 61966-2-4 709, SMPTE RP177

Audio
ID : 2
Format : AC-3
Format/Info : Audio Coding 3
Mode extension : CM (complete main)
Muxing mode : Header stripping
Codec ID : A_AC3
Duration : 22mn 8s
Bit rate mode : Constant
Bit rate : 384 Kbps
Channel(s) : 6 channels
Channel positions : Front: L C R, Side: L R, LFE
Sampling rate : 48.0 KHz
Bit depth : 16 bits
Compression mode : Lossy
Stream size : 60.8 MiB (10%)
Language : English

image

Related Torrents

torrent name size files age seed leech

Sharing Widget


Download torrent
590.34 MB
seeders:29
leechers:2
Ultimate Spiderman S01E06 Why I Hate the Gym 720p WEB-DL DD5 1 H

Trackers

tracker name Status checked seeders leechers downloads
http://inferno.demonoid.me:3414/announce
outdated 18 Nov 2012 - - -
http://tracker.istole.it/announce
outdated 30 Apr 2012 - - -
udp://tracker.openbittorrent.com:80/announce
outdated 30 Apr 2012 - - -
udp://tracker.publicbt.com:80/announce
outdated 30 Apr 2012 - - -
udp://tracker.istole.it:80/announce
outdated 30 Apr 2012 - - -
udp://tracker.1337x.org:80/announce
outdated 30 Apr 2012 - - -
http://exodus.desync.com:6969/announce
blocked 22 Aug 2012 - - -
http://fr33dom.h33t.com:3310/announce
deleted 09 May 2013 - - -
http://tracker.publicbt.com/announce
deleted 11 Mar 2013 - - -
udp://fr33domtracker.h33t.com:3310/announce
deleted 30 Apr 2012 - - -
µTorrent compatible trackers list

Locations

name
ThePirateBay
Torrent hash: C6AD745F1C31A7F9E352D40C943FF7CDB4B88A8D

All Comments

audio
9/10
video
9/10
please, leave only comments related to that torrent
or sign-in
0
AbzEatsAir876 • 25 August 2012, 11:50
torrent downloaded
Show comment
audio: 10video: 10
Thanx! Superb quality. Go spidey goo. Dislike white tiger. >_>
0
go_yukuri1553 • 06 July 2012, 10:14
torrent downloaded
Show comment
audio: 10video: 10
Cheers for the 720p
0
samucanews274 • 25 May 2012, 00:23
torrent downloaded
Show comment
audio: 10video: 10
0
Joe862688 • 02 May 2012, 22:51
torrent downloaded
Show comment
audio: 10video: 10
0
darthsoth887 • 01 May 2012, 03:51
torrent downloaded
Show comment
audio: 9video: 9
Great quality audio and video. Thanks

User Opinions

228_4ever10710.9K, go_yukuri1553, Kammkarsy1099, scott_proffitt905, AbzEatsAir876, epicbat98777, luisffs354, TheKillerR353, samucanews274, Mateo88179 ... And 9 more
Report a bug