Underworld Awakening 2012 TS READNFO XviD AC3-TRiNiTY

seeders: 0
leechers: 2
Added on Feb 10, 2012 in Movies
Torrent verified. Downloaded 0 times.

Summary:
When human forces discover the existence of the Vampire and Lycan clans, a war to eradicate both species commences. The vampire warrior Selene leads the battle against humankind.
Written by Hand_of_Doom132.2K
report summary
Underworld Awakening 2012 TS READNFO XviD AC3-TRiNiTY (Size: 823.55 MB)
  Allycat TRINITY.nfo 3.25 KB
  Read this before playing this Video.txt 222 bytes
  Torrent have been downloaded from Scenetime.com.txt 222 bytes
  Underworld.Awakening.2012.TS.READNFO.XviD.AC3-TRiNiTY.avi 793.55 MB
  Underworld.Awakening.2012.TS.READNFO.XviD.AC3-TRiNiTY.Sample.avi 29.99 MB

Description

.
..............................Site Info...........................

- http://www.scenetime.com *_*

SceneTime is going to Close sign up on march/1, hurry up! get in before the doors are closed.

We care to share . Join us on http://www.scenetime.com

Be the first to get new release at http://www.scenetime.com

Seed back for speed


...................................NFO:.................................................
ooooooooooooo ooooooooo. o8o ooooo ooo o8o ooooooooooooo oooooo oooo
8' 888 `8 `888 `Y88. `"' `888b. `8' `"' 8' 888 `8 `888. .8'
888 888 .d88' oooo 8 `88b. 8 oooo 888 `888. .8'
888 888ooo88P' `888 8 `88b. 8 `888 888 `888.8'
888 888`88b. 888 8 `88b.8 888 888 `888'
888 888 `88b. 888 8 `888 888 888 888
o888o o888o o888o o888o o8o `8 o888o o888o o888o
___________ ______
______ ___ /__ /____ _____________ __ /
_ __ `/_ /__ /__ / / / ___/ __ `/ __/
/ /_/ /_ / _ / _ /_/ // /__ / /_/ // /
\__,_/ /_/ /_/ _\__, / \___/ \__,_/ \__/
/____/








EnCoDer:Allycat



General
Complete name : Underworld.Awakening.2012.TS.READNFO.XviD.AC3-TRiNiTY.avi
Format : AVI
Format/Info : Audio Video Interleave
File size : 794 MiB
Duration : 1h 15mn
Overall bit rate : 1 474 Kbps
Writing library : VirtualDub build 30091/release

Video
ID : 0
Format : MPEG-4 Visual
Format profile : Advanced Simple@L5
Format settings, BVOP : 2
Format settings, QPel : No
Format settings, GMC : No warppoints
Format settings, Matrix : Default (H.263)
Codec ID : XVID
Codec ID/Hint : XviD
Duration : 1h 15mn
Bit rate : 1 080 Kbps
Width : 720 pixels
Height : 304 pixels
Display aspect ratio : 2.35:1
Frame rate : 25.000 fps
Color space : YUV
Chroma subsampling : 4:2:0
Bit depth : 8 bits
Scan type : Progressive
Compression mode : Lossy
Bits/(Pixel*Frame) : 0.197
Stream size : 582 MiB (73%)
Writing library : XviD 1.2.1 (UTC 2008-12-04)

Audio
ID : 1
Format : AC-3
Format/Info : Audio Coding 3
Mode extension : CM (complete main)
Codec ID : 2000
Duration : 1h 15mn
Bit rate mode : Constant
Bit rate : 384 Kbps
Channel(s) : 2 channels
Channel positions : Front: L R
Sampling rate : 48.0 KHz
Bit depth : 16 bits
Compression mode : Lossy
Stream size : 207 MiB (26%)
Alignment : Aligned on interleaves
Interleave, duration : 40 ms (1.00 video frame)
Interleave, preload duration : 512 ms

Related Torrents

torrent name size files age seed leech

Sharing Widget


Download torrent
823.55 MB
seeders:0
leechers:2
Underworld Awakening 2012 TS READNFO XviD AC3-TRiNiTY

Trackers

tracker name Status checked seeders leechers downloads
udp://tracker.publicbt.com:80/announce
outdated 10 Feb 2012 - - -
http://tracker.openbittorrent.com/announce
outdated 10 Feb 2012 - - -
udp://tracker.openbittorrent.com:80/announce
outdated 10 Feb 2012 - - -
http://tracker.publicbt.com/announce
deleted 10 Feb 2012 - - -
ĀµTorrent compatible trackers list

Locations

name
ThePirateBay
Limetorrents
Torrent hash: 67afd08a1e0eca5e7f2ed0a3829be2750358cdb5

All Comments

audio
0/10
video
0/10
please, leave only comments related to that torrent
or sign-in
0
Threelions12 • 11 February 2012, 10:31
torrent downloaded
Show comment
Shite.

User Opinions

sheli171810, waqarr1635
Report a bug