Underworld Awakening 2012 TS READNFO XviD-SiC

seeders: 9
leechers: 2
Added on Feb 9, 2012 in Movies
Torrent verified. Downloaded 1,782 times.

Summary:
When human forces discover the existence of the Vampire and Lycan clans, a war to eradicate both species commences. The vampire warrior Selene leads the battle against humankind.
Written by Hand_of_Doom129.66K
report summary
Underworld Awakening 2012 TS READNFO XviD-SiC (Size: 711.75 MB)
  Torrent downloaded from AhaShare.com.txt 58 bytes
  Torrent downloaded from Demonoid.me.txt 46 bytes
  Torrent downloaded from extratorrent.com.txt 40 bytes
  torrent downloaded from H33T.com.txt 32 bytes
  Underworld Awakening 2012 TS READNFO XviD - SiC.avi 702.53 MB
  Underworld.Awakening.2012.TS.READNFO.XviD-SiC.nfo 10.89 KB
  sample.avi 9.2 MB

Description

Poster:
image

IMDB Link:
http://www.imdb.com/title/tt1496025/

Description:
When human forces discover the existence of the Vampire and Lycan clans, a war to eradicate both species commences. The vampire warrioress Selene leads the battle against humankind.


General
Complete name : Underworld Awakening 2012 TS READNFO XviD - SiC.avi
Format : AVI
Format/Info : Audio Video Interleave
File size : 703 MiB
Duration : 1h 15mn
Overall bit rate : 1 305 Kbps
Writing library : VirtualDub build 30586/release

Video
ID : 0
Format : MPEG-4 Visual
Format profile : Advanced Simple@L5
Format settings, BVOP : 2
Format settings, QPel : No
Format settings, GMC : No warppoints
Format settings, Matrix : Default (H.263)
Muxing mode : Packed bitstream
Codec ID : XVID
Codec ID/Hint : XviD
Duration : 1h 15mn
Bit rate : 1 167 Kbps
Width : 680 pixels
Height : 288 pixels
Display aspect ratio : 2.35:1
Frame rate : 25.000 fps
Color space : YUV
Chroma subsampling : 4:2:0
Bit depth : 8 bits
Scan type : Progressive
Compression mode : Lossy
Bits/(Pixel*Frame) : 0.238
Stream size : 628 MiB (89%)
Writing library : XviD 64

Audio
ID : 1
Format : MPEG Audio
Format version : Version 1
Format profile : Layer 3
Mode : Joint stereo
Mode extension : MS Stereo
Codec ID : 55
Codec ID/Hint : MP3
Duration : 1h 15mn
Bit rate mode : Constant
Bit rate : 128 Kbps
Channel(s) : 2 channels
Sampling rate : 44.1 KHz
Compression mode : Lossy
Stream size : 68.9 MiB (10%)
Alignment : Split accross interleaves
Interleave, duration : 40 ms (1.00 video frame)
Writing library : LAME3.98r
Encoding settings : -m j -V 4 -q 2 -lowpass 17 -b 128


Screenshots:
image
image
image
image
image
image
image
image


Note: For the video I resized, sharpened, adjusted whitebalance, and corrected slant. As for the READNFO ´╗┐there is 2 minutes of cam audio at start.

Source: Big thanks to LittlebirD for the audio and video I honestly don't know, a friend I'm sure so ty...

Enjoy!

Respects to T00NG0D, ELEKTRI4KA, PA, YeFsTe, MrRep and everyone in the struggle...RiP MU & BTJ

Related Torrents

torrent name size files age seed leech

Sharing Widget


Download torrent
711.75 MB
seeders:9
leechers:2
Underworld Awakening 2012 TS READNFO XviD-SiC

Trackers

tracker name Status checked seeders leechers downloads
http://tracker.torrentbay.to:6969/announce
outdated 02 Dec 2012 - - -
http://10.rarbg.com/announce
private 09 May 2012 - - -
udp://tracker.1337x.org:80/announce
outdated 11 Feb 2012 - - -
http://ipv4.tracker.harry.lu/announce
outdated 11 Feb 2012 - - -
http://tracker.ex.ua/announce
outdated 11 Feb 2012 - - -
http://inferno.demonoid.me:3417/announce
outdated 11 Feb 2012 - - -
http://tracker.openbittorrent.com/announce
outdated 11 Feb 2012 - - -
udp://tracker.publicbt.com:80/announce
outdated 11 Feb 2012 - - -
udp://tracker.openbittorrent.com:80/announce
outdated 11 Feb 2012 - - -
http://tracker.pow7.com/announce
outdated 11 Feb 2012 - - -
http://exodus.desync.com:6969/announce
blocked 23 Aug 2012 - - -
http://fr33dom.h33t.com:3310/announce
deleted 20 May 2013 - - -
http://tracker.publicbt.com/announce
deleted 11 Mar 2013 - - -
µTorrent compatible trackers list

Locations

name
ThePirateBay
ExtraTorrent
Limetorrents
Torrent hash: 726e0d56f653c306727346c00edd4cdb02ba048e

All Comments

audio
6/10
video
6/10
please, leave only comments related to that torrent
or sign-in
0
PirateShip699 • 20 August 2012, 04:24
torrent downloaded
Show comment
Thanks works Great
0
WhItE_BeArD12.03K • 25 March 2012, 10:17
torrent downloaded
Show comment
audio: 6video: 3
best movie butn eedd good print
0
sebstian.ilut37 • 11 March 2012, 14:44
torrent downloaded
Show comment
audio: 10video: 10
0
rahul1369271 • 03 March 2012, 04:26
torrent downloaded
Show comment
audio: 6video: 7
good movie but not so good print
0
WhItE_BeArD12.03K • 25 March 2012, 10:17
torrent downloaded
Show comment
ya not good print
0
bigmac1313570 • 15 February 2012, 20:42
torrent downloaded
Show comment
audio: 3video: 4
not good to me
0
callmeV71 • 14 February 2012, 17:02
torrent downloaded
Show comment
audio: 6video: 7
AVG movie
0
Synjen1254 • 14 February 2012, 16:28
torrent downloaded
Show comment
audio: 7video: 8
0
anonymous • 13 February 2012, 02:46 Show comment
wait for something better , but thanks for the upload
0
Lexus1807 • 12 February 2012, 16:23
torrent downloaded
Show comment
audio: 5video: 5
ta 4 effort but will wait 4 beta 1
0
Darkpenguin62287 • 12 February 2012, 11:25
torrent downloaded
Show comment
audio: 4video: 4
Poor
Show More All

User Opinions

Report a bug