Various Artist - Disney Adventures in Samba (2010 - Samba)

seeders: 2
leechers: 0
Added on Feb 15, 2012 by leonenero4137 in Music > Lossless
Torrent verified. Downloaded 36 times.

Various Artist - Disney Adventures in Samba (2010 - Samba) (Size: 316.39 MB)
  00._%Various Artist%_-_%DisneyAdventuresInSamba%.nfo 2.28 KB
  01 - Track01.flac 25.47 MB
  02 - Track02.flac 27.81 MB
  03 - Track03.flac 18.7 MB
  04 - Track04.flac 27.77 MB
  05 - Track05.flac 18.71 MB
  06 - Track06.flac 21.63 MB
  07 - Track07.flac 23.18 MB
  08 - Track08.flac 21.89 MB
  09 - Track09.flac 19.81 MB
  10 - Track10.flac 20.99 MB
  11 - Track11.flac 23.96 MB
  12 - Track12.flac 23.99 MB
  13 - Track13.flac 16.26 MB
  14 - Track14.flac 26.13 MB
  Disney Adventures in Samba.cue 1.86 KB
  folder.jpg 62.23 KB
  Various Artists - Disney Adventures in Samba.log 13.69 KB
  Various Artists - Disney Adventures in Samba.m3u 266 bytes

Description

image

image

image

image

Artist: Various Artist
Title Of Album: Disney, Adventures In Samba
Etichetta: Walt Disney Records
Pubblicazione: 2010
Genre: Mpb
Sub Genre: Samba
Source: CD
Playing Time: 47.24
Total Size: 316,31 MB
Quality: FLAC+Cue+Log+Info+Cover
Bitrate: Lossless



[align=center]image

1. Aquarela do Brasil – Alexandre Pires [03.33]

2. Bahia (Na Baixa do Sapateiro) – Daniela Mercury [04.05]

3. Tico Tico no Fubá – Leci Brandão [02.45]

4. A Estrela Azul – Martinho da Vila [04.28]

5. Você já foi à Bahia? – Margareth Menezes [02.46]

6. Aqui no Mar – Diogo Nogueira [03.22]

7. A Bela e a Fera – Alcione e Sylvinha [03.27]

8. Eu Vou – Grupo Molejo [03.20]

9. O Que Eu Quero Mais é Ser Rei – Exaltasamba [02.59]

10. Somente o Necessário – Dudu Nobre [02.55]

11. Supercalifragilisticexpialidocious – Ana Costa [03.27]

12. Amigo Estou Aqui – Jorge Aragão [03.39]

13. Os Quindins de Yá Yá – Casuarina [02.35]

14. Pagode na Disney – Arlindo Cruz – INÉDITA Composta especialmente para o projeto [03.58]

image

Disney Adventures in Samba è una selezione esclusiva delle consacrate canzoni della Disney al ritmo della samba, interpretate dalle acclamate voci degli astri della Musica Popolare Brasiliana. Il repertorio rappresientato in lingua portoghese include fra le altre registrazioni, contagianti classici come Aquarela do Brasil, Tico Tico no Fubá, del Film ALÓ AMIGOS, non uscito in Italia. La quarta traccia è parte della colonna sonora del Film PINOCCHIO,la quinta come la seconda traccia, fa parte del Film VOCÊ JA FOI A BAHIA?, anch'esso non uscito in Europa, la sesta fa parte della colonna sonora del Film LA SIRENETTA, la settima del Film LA BELLA E LA BESTIA, l'ottava del Film BIANACANEVE, la nona traccia appartiene invece al Film IL RE LEONE, la decima del Film IL LIBRO DELLA GIUNGLA, l'undicesima del Film MARY POPPINS, la dodicesima del Film TOY STORY, la tredicesima, ancora una canzone del Film VOCÊ JA FOI A BAHIA?. L'ultima, una canzone inedita, scritta appositamente per questo progetto. Buon ascolto.

image

Exact Audio Copy V1.0 beta 3 from 29. August 2011

EAC extraction logfile from 11. February 2012, 10:50

Various Artists / Disney Adventures in Samba

Used drive : HL-DT-STDVDRAM GSA-T40N Adapter: 0 ID: 0

Read mode : Secure
Utilize accurate stream : Yes
Defeat audio cache : Yes
Make use of C2 pointers : No

Read offset correction : 667
Overread into Lead-In and Lead-Out : No
Fill up missing offset samples with silence : Yes
Delete leading and trailing silent blocks : No
Null samples used in CRC calculations : Yes
Used interface : Native Win32 interface for Win NT & 2000
Gap handling : Appended to previous track

Used output format : User Defined Encoder
Selected bitrate : 896 kBit/s
Quality : High
Add ID3 tag : No
Command line compressor : C:\Program Files\Exact Audio Copy\FLAC\FLAC.EXE
Additional command line options : -8 -V -T "ARTIST=%artist%" -T "TITLE=%title%" -T "ALBUM=%albumtitle%" -T "DATE=%year%" -T "TRACKNUMBER=%tracknr%" -T "GENRE=%genre%" -T "COMMENT=%comment%" -T "BAND=%albuminterpret%" -T "ALBUMARTIST=%albuminterpret%" -T "COMPOSER=%composer%" %haslyrics%--tag-from-file=LYRICS="%lyricsfile%"%haslyrics% -T "DISCNUMBER=%cdnumber%" -T "TOTALDISCS=%totalcds%" -T "TOTALTRACKS=%numtracks%" %hascover%--picture="%coverfile%"%hascover% %source% -o %dest%


TOC of the extracted CD

Track | Start | Length | Start sector | End sector
---------------------------------------------------------
1 | 0:00.00 | 3:33.40 | 0 | 16014
2 | 3:33.40 | 4:05.05 | 16015 | 34394
3 | 7:38.45 | 2:45.27 | 34395 | 46796
4 | 10:23.72 | 4:28.50 | 46797 | 66946
5 | 14:52.47 | 2:46.08 | 66947 | 79404
6 | 17:38.55 | 3:22.72 | 79405 | 94626
7 | 21:01.52 | 3:27.43 | 94627 | 110194
8 | 24:29.20 | 3:20.22 | 110195 | 125216
9 | 27:49.42 | 2:59.65 | 125217 | 138706
10 | 30:49.32 | 2:55.03 | 138707 | 151834
11 | 33:44.35 | 3:27.22 | 151835 | 167381
12 | 37:11.57 | 3:39.68 | 167382 | 183874
13 | 40:51.50 | 2:35.07 | 183875 | 195506
14 | 43:26.57 | 3:58.10 | 195507 | 213366


Track 1

Filename F:\MY EAC[.FLAC]\Various Artist - Disney Adventures in Samba\01 - Track01.flac

Pre-gap length 0:00:02.00

Peak level 100.0 %
Extraction speed 1.1 X
Track quality 100.0 %
Test CRC A03B940F
Copy CRC A03B940F
Track not present in AccurateRip database
Copy OK

Track 2

Filename F:\MY EAC[.FLAC]\Various Artist - Disney Adventures in Samba\02 - Track02.flac

Peak level 100.0 %
Extraction speed 1.2 X
Track quality 100.0 %
Test CRC A00CF619
Copy CRC A00CF619
Track not present in AccurateRip database
Copy OK

Track 3

Filename F:\MY EAC[.FLAC]\Various Artist - Disney Adventures in Samba\03 - Track03.flac

Peak level 94.4 %
Extraction speed 0.9 X
Track quality 99.9 %
Test CRC 92DA01EA
Copy CRC 92DA01EA
Track not present in AccurateRip database
Copy OK

Track 4

Filename F:\MY EAC[.FLAC]\Various Artist - Disney Adventures in Samba\04 - Track04.flac

Peak level 99.9 %
Extraction speed 0.9 X
Track quality 100.0 %
Test CRC 416D980E
Copy CRC 416D980E
Track not present in AccurateRip database
Copy OK

Track 5

Filename F:\MY EAC[.FLAC]\Various Artist - Disney Adventures in Samba\05 - Track05.flac

Peak level 100.0 %
Extraction speed 0.2 X
Track quality 100.0 %
Test CRC 8836D0B4
Copy CRC 8836D0B4
Track not present in AccurateRip database
Copy OK

Track 6

Filename F:\MY EAC[.FLAC]\Various Artist - Disney Adventures in Samba\06 - Track06.flac

Peak level 100.0 %
Extraction speed 1.1 X
Track quality 100.0 %
Test CRC 96651B45
Copy CRC 96651B45
Track not present in AccurateRip database
Copy OK

Track 7

Filename F:\MY EAC[.FLAC]\Various Artist - Disney Adventures in Samba\07 - Track07.flac

Peak level 100.0 %
Extraction speed 1.5 X
Track quality 100.0 %
Test CRC CD04ADA1
Copy CRC CD04ADA1
Track not present in AccurateRip database
Copy OK

Track 8

Filename F:\MY EAC[.FLAC]\Various Artist - Disney Adventures in Samba\08 - Track08.flac

Peak level 100.0 %
Extraction speed 1.7 X
Track quality 100.0 %
Test CRC 5A6C2B7E
Copy CRC 5A6C2B7E
Track not present in AccurateRip database
Copy OK

Track 9

Filename F:\MY EAC[.FLAC]\Various Artist - Disney Adventures in Samba\09 - Track09.flac

Peak level 83.2 %
Extraction speed 1.7 X
Track quality 100.0 %
Test CRC B421AAC5
Copy CRC B421AAC5
Track not present in AccurateRip database
Copy OK

Track 10

Filename F:\MY EAC[.FLAC]\Various Artist - Disney Adventures in Samba\10 - Track10.flac

Peak level 100.0 %
Extraction speed 1.4 X
Track quality 100.0 %
Test CRC A64CAA2B
Copy CRC A64CAA2B
Track not present in AccurateRip database
Copy OK

Track 11

Filename F:\MY EAC[.FLAC]\Various Artist - Disney Adventures in Samba\11 - Track11.flac

Peak level 98.3 %
Extraction speed 1.8 X
Track quality 100.0 %
Test CRC 8C4AC13F
Copy CRC 8C4AC13F
Track not present in AccurateRip database
Copy OK

Track 12

Filename F:\MY EAC[.FLAC]\Various Artist - Disney Adventures in Samba\12 - Track12.flac

Peak level 99.3 %
Extraction speed 1.9 X
Track quality 100.0 %
Test CRC BE89F8EE
Copy CRC BE89F8EE
Track not present in AccurateRip database
Copy OK

Track 13

Filename F:\MY EAC[.FLAC]\Various Artist - Disney Adventures in Samba\13 - Track13.flac

Peak level 100.0 %
Extraction speed 1.9 X
Track quality 100.0 %
Test CRC 2F4001AD
Copy CRC 2F4001AD
Track not present in AccurateRip database
Copy OK

Track 14

Filename F:\MY EAC[.FLAC]\Various Artist - Disney Adventures in Samba\14 - Track14.flac

Peak level 100.0 %
Extraction speed 2.0 X
Track quality 100.0 %
Test CRC 1DE0E79D
Copy CRC 1DE0E79D
Track not present in AccurateRip database
Copy OK


None of the tracks are present in the AccurateRip database

No errors occurred

End of status report

==== Log checksum FE99DB10E14500DB504BAD704EAD928FBACD6351D8EC19409027F3773E0FFC89 ====

Related Torrents

torrent name size files age seed leech

Sharing Widget


Download torrent
316.39 MB
seeders:2
leechers:0
Various Artist - Disney Adventures in Samba (2010 - Samba)

Trackers

tracker name Status checked seeders leechers downloads
udp://tracker.1337x.org:80/announce
outdated 16 Feb 2012 - - -
udp://tracker.publicbt.com:80/announce
outdated 16 Feb 2012 - - -
udp://tracker.openbittorrent.com:80/announce
outdated 16 Feb 2012 - - -
http://tracker.openbittorrent.com/announce
outdated 16 Feb 2012 - - -
udp://tracker.tntvillage.scambioetico.org:2710/announce
blocked 16 Feb 2012 - - -
http://tracker.publicbt.com/announce
deleted 11 Mar 2013 - - -
http://tracker.tntvillage.scambioetico.org:2710/announce
error 15 Feb 2012 - - -
µTorrent compatible trackers list

Locations

name
KickassTorrents
Limetorrents
Torrent hash: D2C5BBFB5B9EF2E45ADACB2EE2A8544BD37E6FBC

All Comments

please, leave only comments related to that torrent
or sign-in
Report a bug