Advertising (remove)

WowGirls - Klara and Hanna - Final Fantasy

seeders: 4
leechers: 0
Added on Sep 20, 2012 by ponklay6674 in XXX > Video
Torrent verified. Downloaded 10 times.

WowGirls - Klara and Hanna - Final Fantasy (Size: 303.28 MB)
  WowGirls_Klara_Hanna_Final_Fantasy.mp4 303.28 MB
Advertising (remove)

Description

Screens:
http://imgchili.com/show/16516/16516066_wowgirls_klara_hanna.jpg

Today bring to your attention an amazing scene with two Russian beauties, Hanna and Klara. For the girls came to visit and saw the beauties of Timur, caressing each other while helping faloimitatorom. Without thinking, he joined the event. By calling for a sensual and Russian beauties squirt!

WowGirls_Klara_Hanna_Final_Fantasy.mp4
Format : MPEG-4
Format profile : Base Media
Codec ID : isom
File size : 303 MiB
Duration : 23mn 16s
Overall bit rate mode : Variable
Overall bit rate : 1 822 Kbps
Writing application : Lavf52.64.2

Video
ID : 1
Format : AVC
Format/Info : Advanced Video Codec
Format profile : High@L3.1
Format settings, CABAC : Yes
Format settings, ReFrames : 2 frames
Codec ID : avc1
Codec ID/Info : Advanced Video Coding
Duration : 23mn 16s
Bit rate : 1 666 Kbps
Width : 852 pixels
Height : 480 pixels
Display aspect ratio : 16:9
Frame rate mode : Constant
Frame rate : 29.970 fps
Color space : YUV
Chroma subsampling : 4:2:0
Bit depth : 8 bits
Scan type : Progressive
Bits/(Pixel*Frame) : 0.136
Stream size : 277 MiB (91%)
Writing library : x264 core 102 r1666 d058f37
Encoding settings : cabac=1 / ref=2 / deblock=1:0:0 / analyse=0x3:0x113 / me=hex / subme=6 / psy=1 / psy_rd=1.00:0.00 / mixed_ref=0 / me_range=16 / chroma_me=1 / trellis=0 / 8x8dct=1 / cqm=0 / deadzone=21,11 / fast_pskip=1 / chroma_qp_offset=-2 / threads=24 / sliced_threads=0 / nr=0 / decimate=1 / interlaced=0 / constrained_intra=0 / bframes=3 / b_pyramid=0 / b_adapt=1 / b_bias=0 / direct=3 / weightb=1 / open_gop=0 / weightp=2 / keyint=250 / keyint_min=25 / scenecut=40 / intra_refresh=0 / rc_lookahead=40 / rc=crf / mbtree=1 / crf=20.0 / qcomp=0.60 / qpmin=10 / qpmax=51 / qpstep=4 / ip_ratio=1.41 / aq=1:1.00

Audio
ID : 2
Format : AAC
Format/Info : Advanced Audio Codec
Format profile : LC
Codec ID : 40
Duration : 23mn 16s
Bit rate mode : Variable
Bit rate : 150 Kbps
Channel(s) : 2 channels
Channel positions : Front: L R
Sampling rate : 44.1 KHz
Compression mode : Lossy
Delay relative to video : 33ms
Stream size : 24.9 MiB (8%)

Related Torrents

torrent name size files age seed leech

Sharing Widget


Download torrent
303.28 MB
seeders:4
leechers:0
WowGirls - Klara and Hanna - Final Fantasy

Trackers

tracker name Status checked seeders leechers downloads
udp://tracker.openbittorrent.com:80/announce
outdated 07 Dec 2013 - - -
udp://tracker.publicbt.com:80/announce
outdated 07 Dec 2013 - - -
udp://tracker.1337x.org:80/announce
outdated 15 Jun 2013 - - -
http://tracker.istole.it/announce
outdated 15 Jun 2013 - - -
udp://tracker.istole.it:80/announce
outdated 15 Jun 2013 - - -
udp://fr33dom.h33t.com:3310/announce
deleted 15 Jun 2013 - - -
udp://fr33domtracker.h33t.com:3310/announce
deleted 15 Jun 2013 - - -
http://tracker.publicbt.com/announce
deleted 15 Jun 2013 - - -
http://fr33dom.h33t.com:3310/announce
deleted 15 Jun 2013 - - -
udp://tracker.yify-torrents.com:80/announce
pending 07 Dec 2013 4 0 10
udp://torrentbay.to:6969/announce
pending 15 Jun 2013 91 19 1285
ĀµTorrent compatible trackers list

Locations

name
KickassTorrents
Torrent hash: 9140CF6FB608D68F673C4FBC3124B8033A57DCA9

All Comments

audio
0/10
video
0/10
please, leave only comments related to that torrent
or sign-in
0
anonymous • 17 July 2013, 19:29 Show comment
lol why is it called Final Fantasy???
0
anonymous • 21 June 2013, 04:37 Show comment
wow
0
atix05478 • 12 June 2013, 16:39
torrent downloaded
Show comment
lol
0
LevValentine884 • 04 March 2013, 04:11
torrent downloaded
Show comment
thank you
0
xxxTizzlexxx1350 • 13 October 2012, 16:10
torrent downloaded
Show comment
Very Nice!! Great Quality

User Opinions

atix05478, Al4rion3645, rotam1232966, Deiphobus1831, Bachrocco1668, DoctorWong791184, ArchStanton706, deinterlace649, nsane63d564, wersndasda483 ... And 29 more
thriftywatche1182, mpxp539
Report a bug